[NSBC] Jinkusu!!! / Jinx!!! / ジンクス!!! 2013 [WEBDL] [1080p]

Category:
Date:
2020-02-11 10:09 UTC
Submitter:
Seeders:
1
Information:
TlNCQy50bw==
Leechers:
8
File size:
2.5 GiB
Completed:
289
Info hash:
bac4b3d6e8b7315ddc9a668c8019115604241328
![](http://img.topddl.net/images/2020/02/11/162506_01.jpg "") ![](http://img.topddl.net/images/2020/02/11/Jinx.2013.1080p.WEB-DL.AAC.H264-NSBC.mkv.jpg "") ``` General Unique ID : 2256913518389326653608413936388726026 (0x1B2AA6D753C7DFAFD8E805D39ACDD0A) Complete name : Jinx!!!.2013.1080p.WEB-DL.AAC.H264-NSBC.mkv Format : Matroska Format version : Version 4 File size : 2.47 GiB Duration : 2 h 2 min Overall bit rate : 2 877 kb/s Movie name : Jinx!!!.2013.1080p.WEB-DL.AAC.H264-NSBC Encoded by : KenTo | NSBC Encoded date : UTC 2020-02-11 09:55:10 Writing application : mkvmerge v29.0.0 ('Like It Or Not') 64-bit Writing library : libebml v1.3.6 + libmatroska v1.4.9 Copyright : NSBC Comment : KenTo | NSBC WEBSITE : NSBC.to Video ID : 1 Format : AVC Format/Info : Advanced Video Codec Format profile : High@L4 Format settings : CABAC / 3 Ref Frames Format settings, CABAC : Yes Format settings, Reference frames : 3 frames Format settings, GOP : M=1, N=30 Codec ID : V_MPEG4/ISO/AVC Duration : 2 h 2 min Bit rate : 2 748 kb/s Width : 1 920 pixels Height : 1 080 pixels Display aspect ratio : 16:9 Frame rate mode : Variable Frame rate : 16.735 FPS Original frame rate : 29.970 (30000/1001) FPS Color space : YUV Chroma subsampling : 4:2:0 Bit depth : 8 bits Scan type : Progressive Bits/(Pixel*Frame) : 0.079 Stream size : 2.36 GiB (96%) Title : [NSBC] Default : Yes Forced : No Color range : Limited Matrix coefficients : BT.709 Audio ID : 2 Format : AAC LC Format/Info : Advanced Audio Codec Low Complexity Codec ID : A_AAC-2 Duration : 2 h 2 min Bit rate : 127 kb/s Channel(s) : 2 channels Channel layout : L R Sampling rate : 48.0 kHz Frame rate : 46.875 FPS (1024 SPF) Compression mode : Lossy Stream size : 112 MiB (4%) Title : [NSBC] Language : Japanese Default : Yes Forced : No ```

File list

  • Jinx!!!.2013.1080p.WEB-DL.AAC.H264-NSBC.mkv (2.5 GiB)