[NSBC] No Longer Heroine / Heroine Shikkaku / ヒロイン失格 2015 [WEBDL] [1080p]

Category:
Date:
2020-02-11 10:09 UTC
Submitter:
Seeders:
1
Information:
TlNCQy50bw==
Leechers:
1
File size:
4.5 GiB
Completed:
315
Info hash:
8772e2d13f3aab4fe95db16b55b27f137c8273c1
![](http://img.topddl.net/images/2020/02/11/f7378636-d7c9-49dc-9164-62af8b00f1fe.jpg "") ![](http://img.topddl.net/images/2020/02/11/No.Longer.Heroine.2015.1080p.WEB-DL.DDP2.0.H.264-NSBC.mkv.jpg "") ``` General Unique ID : 2479799640571207291990781121742835098 (0x1DD978FD3E078176119F9A270B10D9A) Complete name : No.Longer.Heroine.2015.1080p.WEB-DL.DDP2.0.H.264-NSBC.mkv Format : Matroska Format version : Version 4 File size : 4.53 GiB Duration : 1 h 52 min Overall bit rate : 5 771 kb/s Movie name : No.Longer.Heroine.2015.1080p.WEB-DL.DDP2.0.H.264-NSBC Encoded by : Mabuchi | NSBC Encoded date : UTC 2020-02-09 09:35:04 Writing application : mkvmerge v29.0.0 ('Like It Or Not') 64-bit Writing library : libebml v1.3.6 + libmatroska v1.4.9 Copyright : NSBC Comment : Mabuchi | NSBC WEBSITE : NSBC.to Video ID : 1 Format : AVC Format/Info : Advanced Video Codec Format profile : High@L4 Format settings : CABAC / 4 Ref Frames Format settings, CABAC : Yes Format settings, Reference frames : 4 frames Codec ID : V_MPEG4/ISO/AVC Duration : 1 h 52 min Bit rate : 5 000 kb/s Width : 1 920 pixels Height : 1 080 pixels Display aspect ratio : 16:9 Frame rate mode : Constant Frame rate : 30.000 FPS Color space : YUV Chroma subsampling : 4:2:0 Bit depth : 8 bits Scan type : Progressive Bits/(Pixel*Frame) : 0.080 Stream size : 3.93 GiB (87%) Title : [NSBC] Writing library : Zencoder Video Encoding System Default : Yes Forced : No Color range : Limited Color primaries : BT.709 Transfer characteristics : BT.709 Matrix coefficients : BT.709 Audio #1 ID : 2 Format : E-AC-3 Format/Info : Enhanced AC-3 Commercial name : Dolby Digital Plus Codec ID : A_EAC3 Duration : 1 h 52 min Bit rate mode : Constant Bit rate : 640 kb/s Channel(s) : 2 channels Channel layout : L R Sampling rate : 48.0 kHz Frame rate : 31.250 FPS (1536 SPF) Compression mode : Lossy Delay relative to video : -109 ms Stream size : 515 MiB (11%) Title : [NSBC] Language : Japanese Service kind : Complete Main Default : Yes Forced : No Audio #2 ID : 3 Format : AAC LC Format/Info : Advanced Audio Codec Low Complexity Codec ID : A_AAC-2 Duration : 1 h 52 min Bit rate : 128 kb/s Channel(s) : 2 channels Channel layout : L R Sampling rate : 48.0 kHz Frame rate : 46.875 FPS (1024 SPF) Compression mode : Lossy Delay relative to video : -109 ms Stream size : 103 MiB (2%) Title : [NSBC] Language : Japanese Default : No Forced : No ```

File list

  • No.Longer.Heroine.2015.1080p.WEB-DL.DDP2.0.H.264-NSBC.mkv (4.5 GiB)