Ajin: Demi-Human (2016) S01 [1080p x265 HEVC 10bit BluRay Dual Audio AAC 5.1] [Prof]

Category:
Date:
2020-01-31 18:05 UTC
Submitter:
Seeders:
15
Information:
No information.
Leechers:
2
File size:
8.0 GiB
Completed:
4757
Info hash:
7e31baba320fe0386bbf6b7dd86ac9c5d7fb27ec
[![76652l.jpg](https://i.postimg.cc/jdkP3bBT/76652l.jpg)](https://postimg.cc/8jM7sq1X) Synopsis Mysterious immortal humans known as "Ajin" first appeared 17 years ago in Africa. Upon their discovery, they were labeled as a threat to mankind, as they might use their powers for evil and were incapable of being destroyed. Since then, whenever an Ajin is found within society, they are to be arrested and taken into custody immediately. Studying hard to become a doctor, Kei Nagai is a high schooler who knows very little about Ajin, only having seen them appear in the news every now and then. Students are taught that these creatures are not considered to be human, but Kei doesn't pay much attention in class. As a result, his perilously little grasp on this subject proves to be completely irrelevant when he survives an accident that was supposed to claim his life, signaling his rebirth as an Ajin and the start of his days of torment. However, as he finds himself alone on the run from the entire world, Kei soon realizes that more of his species may be a lot closer than he thinks. Alternative Titles English: Ajin: Demi-Human Synonyms: Ajin Japanese: 亜人 Information Type: TV Episodes: 13 Status: Finished Airing Aired: Jan 16, 2016 to Apr 9, 2016 Premiered: Winter 2016 Broadcast: Saturdays at 01:55 (JST) Producers: Mainichi Broadcasting System, Kodansha, KlockWorx, Sony Music Communications, TOHO animation, King Records Licensors: Sentai Filmworks Studios: Polygon Pictures Source: Manga Genres: Action, Mystery, Horror, Supernatural, Seinen Duration: 24 min. per ep. Rating: R - 17+ (violence & profanity) [![Prof-S01-E01-A-Topic-That-Has-Nothing-to-Do-with-Us-mkv-snaps.png](https://i.postimg.cc/mkBy4ySG/Prof-S01-E01-A-Topic-That-Has-Nothing-to-Do-with-Us-mkv-snaps.png)](https://postimg.cc/MM3QbR4s) [![Prof-S01-E02-Why-Is-This-Happening-to-Me-I-Didn-t-Do-Anything.png](https://i.postimg.cc/52T5yVmg/Prof-S01-E02-Why-Is-This-Happening-to-Me-I-Didn-t-Do-Anything.png)](https://postimg.cc/FYbkCw8k) [![Prof-S01-E03-Maybe-It-s-Hopeless-Now-mkv-snapshot-21-18-2020.png](https://i.postimg.cc/gjg8WFJv/Prof-S01-E03-Maybe-It-s-Hopeless-Now-mkv-snapshot-21-18-2020.png)](https://postimg.cc/1VNfGdDt) Format : Matroska Format version : Version 4 File size : 650 MiB Duration : 24 min 31 s Overall bit rate : 3 703 kb/s Encoded date : UTC 2020-01-24 00:34:18 Writing application : mkvmerge v28.2.0 ('The Awakening') 64-bit Writing library : libebml v1.3.6 + libmatroska v1.4.9 Writing frontend : StaxRip v2.0.0.0 Video ID : 1 Format : HEVC Format/Info : High Efficiency Video Coding Format profile : Main 10@L4@Main Codec ID : V_MPEGH/ISO/HEVC Duration : 24 min 31 s Bit rate : 2 254 kb/s Width : 1 920 pixels Height : 1 080 pixels Display aspect ratio : 16:9 Frame rate mode : Constant Frame rate : 23.976 (24000/1001) FPS Color space : YUV Chroma subsampling : 4:2:0 Bit depth : 10 bits Bits/(Pixel*Frame) : 0.045 Stream size : 395 MiB (61%) Writing library : x265 3.2.1+3-b4b2ecac21f6:[Windows][MSVC 1924][64 bit] 10bit Encoding settings : cpuid=1111039 / frame-threads=2 / numa-pools=4 / wpp / no-pmode / no-pme / no-psnr / no-ssim / log-level=2 / input-csp=1 / input-res=1920x1080 / interlace=0 / total-frames=35280 / level-idc=0 / high-tier=1 / uhd-bd=0 / ref=4 / no-allow-non-conformance / no-repeat-headers / annexb / no-aud / no-hrd / info / hash=0 / no-temporal-layers / open-gop / min-keyint=23 / keyint=250 / gop-lookahead=0 / bframes=8 / b-adapt=2 / b-pyramid / bframe-bias=0 / rc-lookahead=80 / lookahead-slices=6 / scenecut=40 / radl=0 / no-splice / no-intra-refresh / ctu=64 / min-cu-size=8 / rect / no-amp / max-tu-size=32 / tu-inter-depth=1 / tu-intra-depth=1 / limit-tu=0 / rdoq-level=2 / dynamic-rd=0.00 / no-ssim-rd / signhide / no-tskip / nr-intra=0 / nr-inter=0 / no-constrained-intra / strong-intra-smoothing / max-merge=3 / limit-refs=3 / limit-modes / me=3 / subme=3 / merange=57 / temporal-mvp / no-hme / weightp / no-weightb / no-analyze-src-pics / deblock=0:0 / sao / no-sao-non-deblock / rd=4 / selective-sao=4 / no-early-skip / rskip / no-fast-intra / no-tskip-fast / no-cu-lossless / no-b-intra / no-splitrd-skip / rdpenalty=0 / psy-rd=2.00 / psy-rdoq=1.00 / no-rd-refine / no-lossless / cbqpoffs=0 / crqpoffs=0 / rc=crf / crf=20.0 / qcomp=0.60 / qpstep=4 / stats-write=0 / stats-read=0 / ipratio=1.40 / pbratio=1.30 / aq-mode=2 / aq-strength=1.00 / cutree / zone-count=0 / no-strict-cbr / qg-size=32 / no-rc-grain / qpmax=69 / qpmin=0 / no-const-vbv / sar=0 / overscan=0 / videoformat=5 / range=0 / colorprim=2 / transfer=2 / colormatrix=2 / chromaloc=0 / display-window=0 / cll=0,0 / min-luma=0 / max-luma=1023 / log2-max-poc-lsb=8 / vui-timing-info / vui-hrd-info / slices=1 / no-opt-qp-pps / no-opt-ref-list-length-pps / no-multi-pass-opt-rps / scenecut-bias=0.00 / no-opt-cu-delta-qp / no-aq-motion / no-hdr / no-hdr-opt / no-dhdr10-opt / no-idr-recovery-sei / analysis-reuse-level=5 / scale-factor=0 / refine-intra=0 / refine-inter=0 / refine-mv=1 / refine-ctu-distortion=0 / no-limit-sao / ctu-info=0 / no-lowpass-dct / refine-analysis-type=0 / copy-pic=1 / max-ausize-factor=1.0 / no-dynamic-refine / no-single-sei / no-hevc-aq / no-svt / no-field / qp-adaptation-range=1.00 Default : Yes Forced : No Audio #1 ID : 2 Format : AAC LC Format/Info : Advanced Audio Codec Low Complexity Codec ID : A_AAC-2 Duration : 24 min 31 s Bit rate : 723 kb/s Channel(s) : 6 channels Channel layout : C L R Ls Rs LFE Sampling rate : 48.0 kHz Frame rate : 46.875 FPS (1024 SPF) Compression mode : Lossy Delay relative to video : 20 ms Stream size : 127 MiB (20%) Language : English Default : No Forced : No Audio #2 ID : 3 Format : AAC LC Format/Info : Advanced Audio Codec Low Complexity Codec ID : A_AAC-2 Duration : 24 min 31 s Bit rate : 712 kb/s Channel(s) : 6 channels Channel layout : C L R Ls Rs LFE Sampling rate : 48.0 kHz Frame rate : 46.875 FPS (1024 SPF) Compression mode : Lossy Delay relative to video : 20 ms Stream size : 125 MiB (19%) Language : Japanese Default : No Forced : No Text #1 ID : 4 Format : PGS Muxing mode : zlib Codec ID : S_HDMV/PGS Codec ID/Info : Picture based subtitle format used on BDs/HD-DVDs Duration : 23 min 49 s Bit rate : 33.3 kb/s Count of elements : 493 Stream size : 5.67 MiB (1%) Language : English Default : No Forced : No Text #2 ID : 5 Format : PGS Muxing mode : zlib Codec ID : S_HDMV/PGS Codec ID/Info : Picture based subtitle format used on BDs/HD-DVDs Duration : 20 min 34 s Bit rate : 6 761 b/s Count of elements : 107 Stream size : 1 019 KiB (0%) Language : English Default : Yes Forced : No Source: [![71-Yi-Fk6q-G9-L-SX342.jpg](https://i.postimg.cc/4xDtZ1JF/71-Yi-Fk6q-G9-L-SX342.jpg)](https://postimg.cc/v4vDtfxW)

File list

  • Ajin - Demi-Human (2016) S01 [1080p x265 HEVC 10bit BluRay Dual Audio AAC 5.1] [Prof]
    • [Prof] S01E01 - A Topic That Has Nothing to Do with Us.mkv (649.6 MiB)
    • [Prof] S01E02 - Why Is This Happening to Me I Didn`t Do Anything Wrong!.mkv (631.9 MiB)
    • [Prof] S01E03 - Maybe It`s Hopeless Now.mkv (639.1 MiB)
    • [Prof] S01E04 - Have You Seen a Black Ghost.mkv (632.7 MiB)
    • [Prof] S01E05 - The Kind of Garbage That Looks Down on Others, Yet Begs for Their Help.mkv (580.3 MiB)
    • [Prof] S01E06 - I`m Going to Kill You Too!.mkv (657.9 MiB)
    • [Prof] S01E07 - And Conceal Them in a Place Where They`ll Never Be Found Again.mkv (625.7 MiB)
    • [Prof] S01E08 - Brace for Impact.mkv (624.2 MiB)
    • [Prof] S01E09 - Wait, Let`s Keep Talking.mkv (618.8 MiB)
    • [Prof] S01E10 - It Starts Decaying the Moment It`s Created.mkv (562.6 MiB)
    • [Prof] S01E11 - Now Then, It`s Showtime.mkv (601.8 MiB)
    • [Prof] S01E12 - Man, That Sure Was Tiring.mkv (696.8 MiB)
    • [Prof] S01E13 - Satou-san, It`s Your Fault Everything`s Messed Up.mkv (658.9 MiB)
@prof will you post the 2 Afro Samurai Movies? My hero Academia Movie?

Prof (uploader)

User
@radydragoon Sorry but no to the afro samurai movies, maybe MHA movie eventually when I'm doing the whole series again
Can someone seed for me
The sound didn't feel right, certain loud noises would max the speakers and incredibly louder than what else was going on at the time. Was still watchable, the penultimate episode was really bad for the sound issue though. Thank you for the set though still!
Episode 8 subtitles seem to be out of sync. PGS subtitles means I can't sync them. What a pain