(KnS)Dorohedoro 02 1080p Spanish Subs.mkv

Category:
Date:
2020-01-23 04:29 UTC
Submitter:
Seeders:
10
File size:
291.4 MiB
Completed:
104
Info hash:
6b3f3ac3be76295a51e516d2c52e0b8e6bf6d055
# Mediainfo ``` Video Format : AVC x264 Format profile : High 10@L4.1 Duration : 23 min 42 s Bit rate : 1 650 kb/s Width : 1 920 pixels Height : 1 080 pixels Frame rate : 23.976 (24000/1001) FPS Bit depth : 10 bits Stream size : 280 MiB (96%) Audio Format/Info : Advanced Audio Codec Low Complexity with Spectral Band Replication and Parametric Stereo Commercial name : HE-AACv2 Duration : 23 min 42 s Bit rate : 63.8 kb/s Channel(s) : 2 channels Sampling rate : 48.0 kHz Stream size : 10.8 MiB (4%) Language : Japanese Default : Yes Text Codec ID/Info : Advanced Sub Station Alpha Stream size : 21.1 KiB (0%) Title : EspaƱol neutral Language : Spanish Default : Yes ``` [Captura](https://cdn.kanzen.co/Winter2020/Dorohedoro/(KnS)Dorohedoro-02-1080p.jpg) Hola esta vez me retrase bastante pero fue debido al clima una ola de calor de 40 y tantos grados disculpen la tardanza en cuanto al capitulo se estan haciendo mejoras en la correccion puede que aun encuentren errores ortograficos Recuerden si quieren descarga directa por mega visiten nuestro sitio Nuestro Discord https://discord.gg/AQUDy3N Saludos y gracias por mirar nuestra version.

File list

  • (KnS)Dorohedoro 02 1080p.mkv (291.4 MiB)