[Swirty] Cencoroll Connect (BDrip 1920x1080 HEVC 10bit AAC).mkv

Category:
Date:
2020-01-22 22:56 UTC
Submitter:
Seeders:
1
Information:
Leechers:
1
File size:
473.5 MiB
Completed:
10
Info hash:
765a58a220a143ff1995c495c007e9b67fa138de
DDL : https://yadi.sk/d/AShEPMY63OXrIQ Please, continue seeding Video ID : 1 Format : HEVC Format/Info : High Efficiency Video Coding Format profile : Main 10@L5@Main Codec ID : V_MPEGH/ISO/HEVC Duration : 1 h 14 min Bit rate : 741 kb/s Width : 1 920 pixels Height : 1 080 pixels Display aspect ratio : 16:9 Frame rate mode : Constant Frame rate : 23.976 (24000/1001) FPS Color space : YUV Chroma subsampling : 4:2:0 Bit depth : 10 bits Bits/(Pixel*Frame) : 0.015 Stream size : 393 MiB (83%) Language : Japanese Default : Yes Forced : No Audio Format : AAC LC Format/Info : Advanced Audio Codec Low Complexity Codec ID : A_AAC-2 Duration : 1 h 14 min Bit rate : 149 kb/s Channel(s) : 2 channels Channel layout : L R Sampling rate : 44.1 kHz Frame rate : 43.066 FPS (1024 SPF) Compression mode : Lossy Stream size : 79.2 MiB (17%) Default : Yes Forced : No

File list