Daft.Punk.And.Leiji.Matsumotos.Interstella.5555.2003.1080p.MBluRay.x265-TREBLE

Category:
Date:
2020-01-02 02:11 UTC
Submitter:
Seeders:
3
Information:
No information.
Leechers:
0
File size:
1.1 GiB
Completed:
117
Info hash:
a0ae76de73fa824fba4199d5f74a4c4fbec20d33
x265 reencode of https://nyaa.si/view/773919 #### MediaInfo ``` Format : Matroska Format version : Version 4 File size : 1.12 GiB Duration : 1 h 5 min Overall bit rate : 2 452 kb/s Video ID : 1 Format : HEVC Format/Info : High Efficiency Video Coding Format profile : Main@L4@Main Codec ID : V_MPEGH/ISO/HEVC Duration : 1 h 5 min Bit rate : 942 kb/s Width : 1 424 pixels Height : 1 080 pixels Display aspect ratio : 4:3 Frame rate mode : Constant Frame rate : 25.000 FPS Color space : YUV Chroma subsampling : 4:2:0 Bit depth : 8 bits Bits/(Pixel*Frame) : 0.025 Stream size : 441 MiB (38%) Writing library : x265 2.9+1-169e76b6bbcc:[Windows][GCC 8.2.0][64 bit] 8bit+10bit+12bit Default : Yes Forced : No Audio ID : 2 Format : DTS Format/Info : Digital Theater Systems Codec ID : A_DTS Duration : 1 h 5 min Bit rate mode : Constant Bit rate : 1 509 kb/s Channel(s) : 6 channels Channel layout : C L R Ls Rs LFE Sampling rate : 48.0 kHz Frame rate : 93.750 FPS (512 SPF) Bit depth : 16 bits Compression mode : Lossy Stream size : 708 MiB (62%) Language : English Default : Yes Forced : No Menu 00:00:00.000 : en:00:00:00.000 00:01:58.000 : en:00:01:58.000 00:07:07.840 : en:00:07:07.840 00:10:43.000 : en:00:10:43.000 00:15:07.400 : en:00:15:07.400 00:18:50.880 : en:00:18:50.880 00:22:45.800 : en:00:22:45.800 00:24:36.760 : en:00:24:36.760 00:28:32.120 : en:00:28:32.120 00:31:48.480 : en:00:31:48.480 00:35:36.800 : en:00:35:36.800 00:39:21.920 : en:00:39:21.920 00:46:08.080 : en:00:46:08.080 00:49:25.000 : en:00:49:25.000 00:53:23.400 : en:00:53:23.400 01:03:23.600 : en:01:03:23.600 ```

File list

  • Daft.Punk.And.Leiji.Matsumotos.Interstella.5555.2003.1080p.MBluRay.x265-TREBLE.mkv (1.1 GiB)