[shirt] Pocket Monsters Movie 22 - Mewtwo Strikes Back Evolution (BD 1080p x264 FLAC 5.1)

Category:
Date:
2019-12-22 06:17 UTC
Submitter:
Seeders:
2
Information:
Discord: shirt#1337
Leechers:
2
File size:
5.4 GiB
Completed:
175
Info hash:
3de639a76ba9b86872da48e0c120bc1112393f5c
# Pocket Monsters Movie 22 - Mewtwo Strikes Back Evolution ![M22 Poster](https://i.imgur.com/J2s4Wpt.png) ``` General Unique ID : 296131832021879542513359968999758644810 (0xDEC8EA912D349DAAA2DDC7AE85E8464A) Complete name : [shirt] Pocket Monsters Movie 22 - Mewtwo Strikes Back Evolution (BD 1080p x264 FLAC 5.1).mkv Format : Matroska Format version : Version 4 File size : 5.37 GiB Duration : 1 h 36 min Overall bit rate mode : Variable Overall bit rate : 7 967 kb/s Encoded date : UTC 2019-12-22 05:47:17 Writing application : mkvmerge v41.0.0 ('Smarra') 64-bit Writing library : libebml v1.3.9 + libmatroska v1.5.2 Video ID : 1 Format : AVC Format/Info : Advanced Video Codec Format profile : High@L5 Format settings : CABAC / 6 Ref Frames Format settings, CABAC : Yes Format settings, Reference frames : 6 frames Codec ID : V_MPEG4/ISO/AVC Duration : 1 h 36 min Bit rate : 6 245 kb/s Width : 1 920 pixels Height : 1 080 pixels Display aspect ratio : 16:9 Frame rate mode : Constant Frame rate : 23.976 (24000/1001) FPS Color space : YUV Chroma subsampling : 4:2:0 Bit depth : 8 bits Scan type : Progressive Bits/(Pixel*Frame) : 0.126 Stream size : 4.21 GiB (78%) Writing library : x264 core 157 r2935 545de2f Encoding settings : cabac=1 / ref=6 / deblock=1:1:1 / analyse=0x3:0x113 / me=hex / subme=7 / psy=1 / psy_rd=0.40:0.00 / mixed_ref=1 / me_range=16 / chroma_me=1 / trellis=1 / 8x8dct=1 / cqm=0 / deadzone=21,11 / fast_pskip=1 / chroma_qp_offset=-2 / threads=18 / lookahead_threads=3 / sliced_threads=0 / nr=0 / decimate=1 / interlaced=0 / bluray_compat=0 / constrained_intra=0 / bframes=5 / b_pyramid=2 / b_adapt=1 / b_bias=0 / direct=1 / weightb=1 / open_gop=0 / weightp=2 / keyint=240 / keyint_min=23 / scenecut=40 / intra_refresh=0 / rc_lookahead=40 / rc=crf / mbtree=1 / crf=18.0 / qcomp=0.60 / qpmin=0 / qpmax=69 / qpstep=4 / ip_ratio=1.40 / aq=1:0.60 Default : Yes Forced : No Audio ID : 2 Format : FLAC Format/Info : Free Lossless Audio Codec Codec ID : A_FLAC Duration : 1 h 36 min Bit rate mode : Variable Bit rate : 1 697 kb/s Channel(s) : 6 channels Channel layout : L R C LFE Ls Rs Sampling rate : 48.0 kHz Frame rate : 11.719 FPS (4096 SPF) Bit depth : 24 bits Compression mode : Lossless Stream size : 1.14 GiB (21%) Writing library : libFLAC 1.3.2 (UTC 2017-01-01) Language : Japanese Default : Yes Forced : No Text ID : 3 Format : PGS Muxing mode : zlib Codec ID : S_HDMV/PGS Codec ID/Info : Picture based subtitle format used on BDs/HD-DVDs Duration : 1 h 35 min Bit rate : 55.9 kb/s Count of elements : 3794 Stream size : 38.2 MiB (1%) Language : Japanese Default : No Forced : No ```

File list

  • [shirt] Pocket Monsters Movie 22 - Mewtwo Strikes Back Evolution (BD 1080p x264 FLAC 5.1).mkv (5.4 GiB)
English Subs please I Beg of you!!
subs subs subs...!

shirtjs (uploader)

User
@Shazam421 and @Ierusso: You can make the subs if you want