[NSBC] Night Time Picnic / Yoru no Pikunikku / 夜のピクニック 2006 [WEBDL] [1080p]

Category:
Date:
2019-12-15 00:43 UTC
Submitter:
Seeders:
1
Information:
TlNCQy50bw==
Leechers:
4
File size:
4.6 GiB
Completed:
454
Info hash:
ef4182c6862f903547919f18c5e2a38319dc84b6
![](http://img.topddl.net/images/2019/12/15/DSCN0195.jpg "") ![](http://img.topddl.net/images/2019/12/15/Night.Time.Picnic.2006.1080p.WEB-DL.DDP2.0.H.264-NSBC.mkv.jpg "") ``` General Unique ID : 112053042237503328724779916525033344004 (0x544CA18550E049458C660357C7E1CC04) Complete name : Night.Time.Picnic.2006.1080p.WEB-DL.DDP2.0.H.264-NSBC.mkv Format : Matroska Format version : Version 4 File size : 4.58 GiB Duration : 1 h 56 min Overall bit rate : 5 630 kb/s Movie name : Night.Time.Picnic.2006.1080p.WEB-DL.DDP2.0.H.264-NSBC Encoded by : Dracö | NSBC Encoded date : UTC 2019-12-15 00:30:15 Writing application : mkvmerge v41.0.0 ('Smarra') 64-bit Writing library : libebml v1.3.9 + libmatroska v1.5.2 Copyright : NSBC Comment : Dracö | NSBC Video ID : 1 Format : AVC Format/Info : Advanced Video Codec Format profile : High@L4 Format settings : CABAC / 3 Ref Frames Format settings, CABAC : Yes Format settings, Reference frames : 3 frames Format settings, GOP : M=1, N=30 Codec ID : V_MPEG4/ISO/AVC Duration : 1 h 56 min Bit rate : 4 988 kb/s Width : 1 920 pixels Height : 1 080 pixels Display aspect ratio : 16:9 Frame rate mode : Variable Frame rate : 29.926 FPS Original frame rate : 29.970 (30000/1001) FPS Color space : YUV Chroma subsampling : 4:2:0 Bit depth : 8 bits Scan type : Progressive Bits/(Pixel*Frame) : 0.080 Stream size : 4.05 GiB (89%) Title : [NSBC] Default : Yes Forced : No Color range : Limited Matrix coefficients : BT.709 Audio ID : 2 Format : E-AC-3 Format/Info : Enhanced AC-3 Commercial name : Dolby Digital Plus Codec ID : A_EAC3 Duration : 1 h 56 min Bit rate mode : Constant Bit rate : 640 kb/s Channel(s) : 2 channels Channel layout : L R Sampling rate : 48.0 kHz Frame rate : 31.250 FPS (1536 SPF) Compression mode : Lossy Stream size : 533 MiB (11%) Title : [NSBC] Language : Japanese Service kind : Complete Main Default : Yes Forced : No Menu 00:00:00.000 : en:Chapter 01 00:10:37.595 : en:Chapter 02 00:21:51.685 : en:Chapter 03 00:30:53.351 : en:Chapter 04 00:41:16.056 : en:Chapter 05 00:50:02.791 : en:Chapter 06 01:02:03.636 : en:Chapter 07 01:11:15.104 : en:Chapter 08 01:23:20.453 : en:Chapter 09 01:31:37.074 : en:Chapter 10 01:41:33.545 : en:Chapter 11 01:48:26.500 : en:Chapter 12 01:53:32.806 : en:Chapter 13 ```

File list

  • Night.Time.Picnic.2006.1080p.WEB-DL.DDP2.0.H.264-NSBC.mkv (4.6 GiB)