[NSBC] Hidarikiki no Eren E07 [HDTV] [1080p]

Category:
Date:
2019-12-03 00:14 UTC
Submitter:
Seeders:
11
Information:
TlNCQy50bw==
Leechers:
5
File size:
1000.1 MiB
Completed:
304
Info hash:
ac272f99c2f34b84a071fe0f1641d3e6511f4b0f
![](https://www.mbs.jp/eren_drama/images/head.jpg "") ![](https://i.imgur.com/93cmjEC.jpg "") ``` General Unique ID : 104931300997739781274874516054571059102 (0x4EF108917520842C7AD81A35813D879E) Complete name : [NSBC] Hidarikiki no Eren E07 [HDTV] [1080p].mkv Format : Matroska Format version : Version 4 File size : 1 000 MiB Duration : 23 min 59 s Overall bit rate : 5 828 kb/s Movie name : [NSBC] Hidarikiki no Eren E07 [HDTV] [1080p] Encoded by : MoMo | NSBC Encoded date : UTC 2019-12-03 00:10:38 Writing application : mkvmerge v40.0.0 ('Old Town Road + Pony') 64-bit Writing library : libebml v1.3.9 + libmatroska v1.5.2 Copyright : NSBC Comment : MoMo | NSBC DATE_RECORDED : 2019 Video ID : 1 Format : AVC Format/Info : Advanced Video Codec Format profile : High@L4 Format settings : CABAC / 4 Ref Frames Format settings, CABAC : Yes Format settings, Reference frames : 4 frames Codec ID : V_MPEG4/ISO/AVC Duration : 23 min 59 s Bit rate : 5 696 kb/s Width : 1 920 pixels Height : 1 080 pixels Display aspect ratio : 16:9 Frame rate mode : Constant Frame rate : 29.970 (29970/1000) FPS Color space : YUV Chroma subsampling : 4:2:0 Bit depth : 8 bits Scan type : Progressive Bits/(Pixel*Frame) : 0.092 Stream size : 977 MiB (98%) Title : [NSBC] Default : Yes Forced : No Audio ID : 2 Format : AAC LC Format/Info : Advanced Audio Codec Low Complexity Codec ID : A_AAC-2 Duration : 23 min 59 s Bit rate : 129 kb/s Channel(s) : 2 channels Channel layout : L R Sampling rate : 48.0 kHz Frame rate : 46.875 FPS (1024 SPF) Compression mode : Lossy Delay relative to video : 18 ms Stream size : 22.1 MiB (2%) Title : [NSBC] Language : Japanese Default : Yes Forced : No ```

File list

  • [NSBC] Hidarikiki no Eren E07 [HDTV] [1080p].mkv (1000.1 MiB)