[HikaruIII] FranChouChou - 「Saga Jihen」 [FHD x264 hi10p FLAC].mkv

Category:
Date:
2019-12-01 13:21 UTC
Submitter:
Seeders:
1
Information:
No information.
Leechers:
0
File size:
331.1 MiB
Completed:
117
Info hash:
5a750c65bd8470ae1d60e9880cdbffcad575a560
General Unique ID : 328694011035451105209105771464956624445 (0xF74829F160E01564D890970D5760BE3D) Complete name : J:\Music video\Anime Music Video\[HikaruIII] FranChouChou - 「Saga Jihen」 [FHD x264 hi10p FLAC].mkv Format : Matroska Format version : Version 4 File size : 331 MiB Duration : 5 min 50 s Overall bit rate mode : Variable Overall bit rate : 7 934 kb/s Encoded date : UTC 2019-12-01 13:06:42 Writing application : mkvmerge v40.0.0 ('Old Town Road + Pony') 64-bit Writing library : libebml v1.3.9 + libmatroska v1.5.2 Video ID : 1 Format : AVC Format/Info : Advanced Video Codec Format profile : High 10@L5.1 Format settings : CABAC / 4 Ref Frames Format settings, CABAC : Yes Format settings, Reference : 4 frames Codec ID : V_MPEG4/ISO/AVC Duration : 5 min 50 s Bit rate : 6 278 kb/s Width : 1 920 pixels Height : 1 080 pixels Display aspect ratio : 16:9 Frame rate mode : Constant Frame rate : 23.976 (24000/1001) FPS Color space : YUV Chroma subsampling : 4:2:0 Bit depth : 10 bits Scan type : Progressive Bits/(Pixel*Frame) : 0.126 Stream size : 262 MiB (79%) Writing library : x264 core 157 r2935 545de2f Encoding settings : cabac=1 / ref=3 / deblock=1:0:0 / analyse=0x3:0x113 / me=hex / subme=7 / psy=1 / psy_rd=1.00:0.00 / mixed_ref=1 / me_range=16 / chroma_me=1 / trellis=1 / 8x8dct=1 / cqm=0 / deadzone=21,11 / fast_pskip=1 / chroma_qp_offset=-2 / threads=6 / lookahead_threads=1 / sliced_threads=0 / nr=0 / decimate=1 / interlaced=0 / bluray_compat=0 / constrained_intra=0 / bframes=3 / b_pyramid=2 / b_adapt=1 / b_bias=0 / direct=1 / weightb=1 / open_gop=0 / weightp=2 / keyint=240 / keyint_min=23 / scenecut=40 / intra_refresh=0 / rc_lookahead=40 / rc=crf / mbtree=1 / crf=16.0 / qcomp=0.60 / qpmin=0 / qpmax=69 / qpstep=4 / vbv_maxrate=300000 / vbv_bufsize=300000 / crf_max=0.0 / nal_hrd=none / filler=0 / ip_ratio=1.40 / aq=1:1.00 Language : Japanese Default : Yes Forced : No Audio ID : 2 Format : FLAC Format/Info : Free Lossless Audio Codec Codec ID : A_FLAC Duration : 5 min 50 s Bit rate mode : Variable Bit rate : 1 654 kb/s Channel(s) : 2 channels Channel layout : L R Sampling rate : 48.0 kHz Frame rate : 11.719 FPS (4096 SPF) Bit depth : 24 bits Compression mode : Lossless Stream size : 69.0 MiB (21%) Writing library : libFLAC 1.2.1 (UTC 2007-09-17) Language : Japanese Default : Yes Forced : No

File list

  • [HikaruIII] FranChouChou - 「Saga Jihen」 [FHD x264 hi10p FLAC].mkv (331.1 MiB)
Made an account in order to thank for this blessed upload, seeding for the rest of my life.