[AOmundson] Kill la Kill + Specials & Extras (2013) [Dual Audio] (BD x264 1080p Hi10P FLAC)

Category:
Date:
2019-11-20 19:33 UTC
Submitter:
Seeders:
6
Information:
Leechers:
5
File size:
125.7 GiB
Completed:
353
Info hash:
577c0b6448e0f15ba243a3ea7799bd541eabaeed
#### Alternative Titles English: KILL la KILL Synonyms: KLK, Dressed to Kill Japanese: キルラキル #### Information Type: TV Episodes: 24 Status: Finished Airing Aired: Oct 4, 2013 to Mar 28, 2014 Premiered: Fall 2013 Broadcast: Fridays at 02:05 (JST) Producers: Aniplex, Dentsu, Kadokawa Shoten, Mainichi Broadcasting System, Movic, Ultra Super Pictures, Lucent Pictures Entertainment Licensors: Aniplex of America Studios: Trigger Source: Original Genres: Action, Comedy, Super Power, Ecchi, School Duration: 24 min. per ep. Rating: PG-13 - Teens 13 or older #### Synopsis After the murder of her father, Ryuuko Matoi has been wandering the land in search of his killer. Following her only lead—the missing half of his invention, the Scissor Blade—she arrives at the prestigious Honnouji Academy, a high school unlike any other. The academy is ruled by the imposing and cold-hearted student council president Satsuki Kiryuuin alongside her powerful underlings, the Elite Four. In the school's brutally competitive hierarchy, Satsuki bestows upon those at the top special clothes called "Goku Uniforms," which grant the wearer unique superhuman abilities. Thoroughly beaten in a fight against one of the students in uniform, Ryuuko retreats to her razed home where she stumbles across Senketsu, a rare and sentient "Kamui," or God Clothes. After coming into contact with Ryuuko's blood, Senketsu awakens, latching onto her and providing her with immense power. Now, armed with Senketsu and the Scissor Blade, Ryuuko makes a stand against the Elite Four, hoping to reach Satsuki and uncover the culprit behind her father's murder once and for all. #### Credits Original raw encode by phaz0n Original subtitles by Underwater and FFF, modified by AOmundson #### Screenshots ![](https://i.imgur.com/OxeULjA.png) ![](https://i.imgur.com/f6Y438T.png) ![](https://i.imgur.com/BS2XdaJ.png) ![](https://i.imgur.com/H9RLo7b.png) ![](https://i.imgur.com/PjSiwXK.png) ![](https://i.imgur.com/wIUyOJV.png) #### Media Info Video ID : 1 Format : AVC Format/Info : Advanced Video Codec Format profile : High 10@L5.1 Format settings : CABAC / 16 Ref Frames Format settings, CABAC : Yes Format settings, RefFrames : 16 frames Codec ID : V_MPEG4/ISO/AVC Duration : 24 min 28 s Bit rate : 25.8 Mb/s Width : 1 920 pixels Height : 1 080 pixels Display aspect ratio : 16:9 Frame rate mode : Constant Frame rate : 23.976 (24000/1001) FPS Color space : YUV Chroma subsampling : 4:2:0 Bit depth : 10 bits Scan type : Progressive Bits/(Pixel*Frame) : 0.519 Stream size : 4.41 GiB (89%) Writing library : x264 core 148 r2744 b97ae06 Encoding settings : cabac=1 / ref=16 / deblock=1:0:0 / analyse=0x3:0x133 / me=umh / subme=11 / psy=1 / psy_rd=0.90:0.10 / mixed_ref=1 / me_range=32 / chroma_me=1 / trellis=2 / 8x8dct=1 / cqm=0 / deadzone=21,11 / fast_pskip=0 / chroma_qp_offset=-3 / threads=12 / lookahead_threads=2 / sliced_threads=0 / nr=0 / decimate=1 / interlaced=0 / bluray_compat=0 / constrained_intra=0 / bframes=8 / b_pyramid=2 / b_adapt=2 / b_bias=0 / direct=3 / weightb=1 / open_gop=0 / weightp=2 / keyint=240 / keyint_min=23 / scenecut=40 / intra_refresh=0 / rc_lookahead=60 / rc=crf / mbtree=1 / crf=14.0 / qcomp=0.60 / qpmin=0 / qpmax=81 / qpstep=4 / ip_ratio=1.40 / aq=3:0.80 Language : Japanese Default : Yes Forced : No Audio #1 ID : 2 Format : FLAC Format/Info : Free Lossless Audio Codec Codec ID : A_FLAC Duration : 24 min 28 s Bit rate mode : Variable Bit rate : 1 547 kb/s Channel(s) : 2 channels Channel positions : Front: L R Sampling rate : 48.0 kHz Frame rate : 11.719 FPS (4096 SPF) Bit depth : 24 bits Stream size : 271 MiB (5%) Writing library : libFLAC 1.3.2 (UTC 2017-01-01) Language : English Default : Yes Forced : No Audio #2 ID : 3 Format : FLAC Format/Info : Free Lossless Audio Codec Codec ID : A_FLAC Duration : 24 min 28 s Bit rate mode : Variable Bit rate : 1 554 kb/s Channel(s) : 2 channels Channel positions : Front: L R Sampling rate : 48.0 kHz Frame rate : 11.719 FPS (4096 SPF) Bit depth : 24 bits Stream size : 272 MiB (5%) Writing library : libFLAC 1.3.2 (UTC 2017-01-01) Language : Japanese Default : No Forced : No Text #1 ID : 4 Format : ASS Codec ID : S_TEXT/ASS Codec ID/Info : Advanced Sub Station Alpha Duration : 24 min 26 s Bit rate : 1 208 b/s Count of elements : 1809 Compression mode : Lossless Stream size : 216 KiB (0%) Title : Signs/Songs Language : English Default : Yes Forced : No Text #2 ID : 5 Format : ASS Codec ID : S_TEXT/ASS Codec ID/Info : Advanced Sub Station Alpha Duration : 24 min 26 s Bit rate : 1 329 b/s Count of elements : 2203 Compression mode : Lossless Stream size : 238 KiB (0%) Language : Japanese Default : No Forced : No Menu 00:00:00.000 : en:Prologue 00:04:29.186 : en:Episode 00:22:42.027 : en:Ending 00:24:11.992 : en:Preview

File list

  • [AOmundson] Kill la Kill 1080p [Dual]
    • Extras
      • Extended Previews
        • [AOmundson] Kill la Kill PV - 00 (Ver. 01).mkv (46.2 MiB)
        • [AOmundson] Kill la Kill PV - 00 (Ver. 02).mkv (103.5 MiB)
        • [AOmundson] Kill la Kill PV - 01.mkv (84.5 MiB)
        • [AOmundson] Kill la Kill PV - 02.mkv (82.8 MiB)
        • [AOmundson] Kill la Kill PV - 03.mkv (85.7 MiB)
        • [AOmundson] Kill la Kill PV - 04.mkv (99.0 MiB)
        • [AOmundson] Kill la Kill PV - 05.mkv (95.8 MiB)
        • [AOmundson] Kill la Kill PV - 06.mkv (87.3 MiB)
        • [AOmundson] Kill la Kill PV - 07.mkv (83.1 MiB)
        • [AOmundson] Kill la Kill PV - 08.mkv (93.2 MiB)
        • [AOmundson] Kill la Kill PV - 09.mkv (90.0 MiB)
        • [AOmundson] Kill la Kill PV - 10.mkv (93.2 MiB)
        • [AOmundson] Kill la Kill PV - 11.mkv (82.0 MiB)
        • [AOmundson] Kill la Kill PV - 12.mkv (87.8 MiB)
        • [AOmundson] Kill la Kill PV - 13.mkv (82.7 MiB)
        • [AOmundson] Kill la Kill PV - 14.mkv (70.4 MiB)
        • [AOmundson] Kill la Kill PV - 15.mkv (81.3 MiB)
        • [AOmundson] Kill la Kill PV - 16.mkv (79.3 MiB)
        • [AOmundson] Kill la Kill PV - 17.mkv (79.8 MiB)
        • [AOmundson] Kill la Kill PV - 18.mkv (77.1 MiB)
        • [AOmundson] Kill la Kill PV - 19.mkv (75.6 MiB)
        • [AOmundson] Kill la Kill PV - 20.mkv (87.7 MiB)
        • [AOmundson] Kill la Kill PV - 21.mkv (78.5 MiB)
        • [AOmundson] Kill la Kill PV - 22.mkv (70.7 MiB)
        • [AOmundson] Kill la Kill PV - 23.mkv (14.5 MiB)
        • [AOmundson] Kill la Kill PV - 24 (Ver. 01).mkv (35.5 MiB)
        • [AOmundson] Kill la Kill PV - 24 (Ver. 02).mkv (80.3 MiB)
      • OST
        • [AOmundson] Kill la Kill - OST Wallpaper - 01.mkv (52.8 MiB)
        • [AOmundson] Kill la Kill - OST Wallpaper - 02.mkv (51.6 MiB)
        • [AOmundson] Kill la Kill - OST Wallpaper - 03.mkv (52.6 MiB)
        • [AOmundson] Kill la Kill - OST Wallpaper - 04.mkv (51.6 MiB)
        • [AOmundson] Kill la Kill - OST Wallpaper - 05.mkv (51.2 MiB)
      • Recap
        • [AOmundson] - Kill la Kill Series Recap.mkv (1.6 GiB)
    • OP & ED
      • [AOmundson] Kill la Kill ED - 01.mkv (244.8 MiB)
      • [AOmundson] Kill la Kill ED - 02.mkv (291.5 MiB)
      • [AOmundson] Kill la Kill ED - 03.mkv (301.5 MiB)
      • [AOmundson] Kill la Kill ED - 04.mkv (315.7 MiB)
      • [AOmundson] Kill la Kill ED - 05.mkv (232.5 MiB)
      • [AOmundson] Kill la Kill ED - 06.mkv (322.1 MiB)
      • [AOmundson] Kill la Kill OP - 01.mkv (324.1 MiB)
      • [AOmundson] Kill la Kill OP - 02.mkv (325.5 MiB)
      • [AOmundson] Kill la Kill OP - 03.mkv (325.5 MiB)
      • [AOmundson] Kill la Kill OP - 04.mkv (318.5 MiB)
      • [AOmundson] Kill la Kill OP - 05.mkv (318.0 MiB)
      • [AOmundson] Kill la Kill OP - 06.mkv (315.6 MiB)
      • [AOmundson] Kill la Kill OP - 07.mkv (306.8 MiB)
    • [AOmundson] Kill la Kill - 01.mkv (4.9 GiB)
    • [AOmundson] Kill la Kill - 02.mkv (4.7 GiB)
    • [AOmundson] Kill la Kill - 03.mkv (4.7 GiB)
    • [AOmundson] Kill la Kill - 04.mkv (4.7 GiB)
    • [AOmundson] Kill la Kill - 05.mkv (4.5 GiB)
    • [AOmundson] Kill la Kill - 06.mkv (4.9 GiB)
    • [AOmundson] Kill la Kill - 07.mkv (4.5 GiB)
    • [AOmundson] Kill la Kill - 08.mkv (4.5 GiB)
    • [AOmundson] Kill la Kill - 09.mkv (4.9 GiB)
    • [AOmundson] Kill la Kill - 10.mkv (4.8 GiB)
    • [AOmundson] Kill la Kill - 11.mkv (5.0 GiB)
    • [AOmundson] Kill la Kill - 12.mkv (4.9 GiB)
    • [AOmundson] Kill la Kill - 13.mkv (4.5 GiB)
    • [AOmundson] Kill la Kill - 14.mkv (4.8 GiB)
    • [AOmundson] Kill la Kill - 15.mkv (4.8 GiB)
    • [AOmundson] Kill la Kill - 16.mkv (4.7 GiB)
    • [AOmundson] Kill la Kill - 17.mkv (4.6 GiB)
    • [AOmundson] Kill la Kill - 18.mkv (4.6 GiB)
    • [AOmundson] Kill la Kill - 19.mkv (4.6 GiB)
    • [AOmundson] Kill la Kill - 20.mkv (4.6 GiB)
    • [AOmundson] Kill la Kill - 21.mkv (4.6 GiB)
    • [AOmundson] Kill la Kill - 22.mkv (4.5 GiB)
    • [AOmundson] Kill la Kill - 23.mkv (4.6 GiB)
    • [AOmundson] Kill la Kill - 24.mkv (4.8 GiB)
    • [AOmundson] Kill la Kill - 25.mkv (5.2 GiB)
Wasn't this show barely 720p or something?
> shows screenshots that shows TS doesn't even use correct colors.
You are awesome. There are even all ending and openings. Thanks
Please can you seed this?
didnt download for some reason on my computer even tho other torrents worked fine. dk what the problem was :(
> Wasn’t this show barely 720p or something? the production is literally 1280HV.