[PTBR] Fate/Stay Night Heaven's Feel Movie 1 & 2 [1920x1080][BD][x265 HEVC] [AAC 5.1 & 2.0]

Category:
Date:
2019-11-16 15:37 UTC
Submitter:
Seeders:
2
Information:
No information.
Leechers:
0
File size:
7.3 GiB
Completed:
123
Info hash:
618a4f0cc82f118a82ce3d4aad262b5d78668d66
Legenda de Eternal Animes com encode x265. Qualidade de imagem praticamente idêntica ao do x264 do EA. Créditos da tradução são da Eternal Animes eu só adaptei a legenda para este encode para economizar espaço, se você não se importa com espaço recomendo baixar a versão da EA. Eternal Animes https://eternalanimes.org/ Encode settings: General Unique ID : 183052342452119204866253282542229615673 (0x89B699491D1A8E4FBE3313F3F42F7439) Format : Matroska Format version : Version 4 File size : 3.65 GiB Duration : 2 h 0 min Overall bit rate : 4 328 kb/s Encoded date : UTC 2019-11-12 21:22:38 Writing application : mkvmerge v7.0.0 ('Where We Going') 64bit built on Jun 9 2014 15:16:27 Writing library : libebml v1.3.0 + libmatroska v1.4.1 Attachments : A-OTF TakaHandSTD-B_0.ttf / constan.ttf / SANFW.TTF / SitkaB.ttc / trebuc.ttf / trebucbd.ttf / TYPO GROTESK ROUNDED DEMO.OTF / WHATEVERITTAKES.TTF / AvantGardeDemiBT.ttf / AveriaSerif-Regular.ttf / Brushie-Brushie.ttf / FOT-MATISSEPRO-B-TOARU.TTF / NotoSans-Bold.ttf / NotoSans-BoldItalic.ttf / RolandBecker Bold.ttf / URWImperialTExtBol.ttf / AucoinExtBol.ttf Video ID : 1 Format : HEVC Format/Info : High Efficiency Video Coding Format profile : Main 10@L4@Main Codec ID : V_MPEGH/ISO/HEVC Duration : 2 h 0 min Bit rate : 3 519 kb/s Width : 1 920 pixels Height : 1 080 pixels Display aspect ratio : 16:9 Frame rate mode : Constant Frame rate : 23.976 (24000/1001) FPS Color space : YUV Chroma subsampling : 4:2:0 Bit depth : 10 bits Bits/(Pixel*Frame) : 0.071 Stream size : 2.96 GiB (81%) Default : Yes Forced : No Audio #1 ID : 2 Format : AAC LC Format/Info : Advanced Audio Codec Low Complexity Codec ID : A_AAC-2 Duration : 2 h 0 min Bit rate : 662 kb/s Channel(s) : 6 channels Channel layout : C L R Ls Rs LFE Sampling rate : 48.0 kHz Frame rate : 46.875 FPS (1024 SPF) Compression mode : Lossy Delay relative to video : 20 ms Stream size : 562 MiB (15%) Title : JAP AAC 5.1 Language : Japanese Default : Yes Forced : No Audio #2 ID : 3 Format : AAC LC Format/Info : Advanced Audio Codec Low Complexity Codec ID : A_AAC-2 Duration : 2 h 0 min Bit rate : 149 kb/s Channel(s) : 2 channels Channel layout : L R Sampling rate : 48.0 kHz Frame rate : 46.875 FPS (1024 SPF) Compression mode : Lossy Delay relative to video : 20 ms Stream size : 129 MiB (3%) Title : JAP AAC 2.0 Language : Japanese Default : No Forced : No Text ID : 4 Format : ASS Codec ID : S_TEXT/ASS Codec ID/Info : Advanced Sub Station Alpha Duration : 2 h 0 min Bit rate : 71 b/s Count of elements : 1250 Compression mode : Lossless Stream size : 63.4 KiB (0%) Title : EA Default : Yes Forced : No Menu 00:00:00.000 : en:Chapter 01 00:04:19.885 : en:Chapter 02 00:09:07.839 : en:Chapter 03 00:12:32.126 : en:Chapter 04 00:19:47.395 : en:Chapter 05 00:26:44.102 : en:Chapter 06 00:29:58.005 : en:Chapter 07 00:34:50.922 : en:Chapter 08 00:40:10.992 : en:Chapter 09 00:47:07.575 : en:Chapter 10 00:52:19.178 : en:Chapter 11 00:59:06.543 : en:Chapter 12 01:07:36.886 : en:Chapter 13 01:15:41.120 : en:Chapter 14 01:20:32.202 : en:Chapter 15 01:24:49.418 : en:Chapter 16 01:30:56.743 : en:Chapter 17 01:38:43.417 : en:Chapter 18 01:44:11.370 : en:Chapter 19 01:51:28.473 : en:Chapter 20 01:53:39.312 : en:Chapter 21 01:59:21.154 : en:Chapter 22

File list

  • Heaven's Feel
    • Fate_Stay_Night_-_Heaven's_Feel_II_-_lost_butterfly_[1920x1080][BD][x265 HEVC].mkv (3.6 GiB)
    • Fate_Stay_Night_-_Heaven's_Feel_I_-_presage_flower_[1920x1080][BD][x265 HEVC].mkv (3.6 GiB)
    • fatemovie2first key art.jpeg (79.5 KiB)
    • ffoollddeerr.jpg (1.2 MiB)
    • folder alt 001.jpg (222.0 KiB)
    • folder.jpg (1.6 MiB)
    • heavens-feel-2-visual.png (713.1 KiB)
    • img-key2.jpg (457.9 KiB)
    • key visual for Fate Heaven's Feel by Ufotable 27 de março 2016.jpg (1007.2 KiB)
Sorry-I'll pass on this.
there is almost no seeders, and the download speed cant even be 200kb....