[NSBC] MotoKare Mania E05 [WEBDL] [1080p]

Category:
Date:
2019-11-16 00:39 UTC
Submitter:
Seeders:
5
Information:
TlNCQy50bw==
Leechers:
3
File size:
1000.7 MiB
Completed:
309
Info hash:
b4b0bb58ae57f875f42aee85aef78110af4f45b0
> ### Subtitle English & Indonesian > ### Also available on [Subscene](https://subscene.com/subtitles/motokare-mania-ex-enthusiasts-motokare-mania) ![](https://i.fod.fujitv.co.jp/pc/image/ep/4l22/wbhjfr_4l22_cxbg_001_wm.jpg "") ![](http://img.topddl.net/images/07adbbc4ff7c31c8f4fe9a626df7738a.jpg "") ``` General Unique ID : 37742782429323872123721556302404093236 (0x1C64FED8343FC53F75D141B07B498534) Complete name : [NSBC] MotoKare Mania E05 [WEBDL] [1080p] [V2].mkv Format : Matroska Format version : Version 4 File size : 1 001 MiB Duration : 45 min 37 s Overall bit rate : 3 067 kb/s Movie name : [NSBC] MotoKare Mania E05 [WEBDL] [1080p] [V2] Encoded by : NoNe | NSBC Encoded date : UTC 2019-11-16 00:35:39 Writing application : mkvmerge v39.0.0 ('In The Waiting Line') 64-bit Writing library : libebml v1.3.9 + libmatroska v1.5.2 Copyright : NSBC Comment : NoNe | NSBC DATE_RECORDED : 2019 Video ID : 1 Format : AVC Format/Info : Advanced Video Codec Format profile : High@L4 Format settings : CABAC / 4 Ref Frames Format settings, CABAC : Yes Format settings, Reference frames : 4 frames Codec ID : V_MPEG4/ISO/AVC Duration : 45 min 37 s Bit rate : 3 000 kb/s Width : 1 920 pixels Height : 1 080 pixels Display aspect ratio : 16:9 Frame rate mode : Constant Frame rate : 24.000 FPS Color space : YUV Chroma subsampling : 4:2:0 Bit depth : 8 bits Scan type : Progressive Bits/(Pixel*Frame) : 0.060 Stream size : 979 MiB (98%) Title : [NSBC] Writing library : x264 core 152 r2851 ba24899 Encoding settings : cabac=1 / ref=4 / deblock=1:0:0 / analyse=0x3:0x113 / me=hex / subme=8 / psy=1 / psy_rd=1.00:0.00 / mixed_ref=1 / me_range=16 / chroma_me=1 / trellis=2 / 8x8dct=1 / cqm=0 / deadzone=21,11 / fast_pskip=1 / chroma_qp_offset=-2 / threads=10 / lookahead_threads=1 / sliced_threads=0 / nr=0 / decimate=1 / interlaced=0 / bluray_compat=0 / constrained_intra=0 / bframes=0 / weightp=2 / keyint=72 / keyint_min=7 / scenecut=40 / intra_refresh=0 / rc_lookahead=50 / rc=cbr / mbtree=1 / bitrate=3000 / ratetol=1.0 / qcomp=0.90 / qpmin=3 / qpmax=51 / qpstep=8 / vbv_maxrate=3000 / vbv_bufsize=12000 / nal_hrd=none / filler=0 / ip_ratio=1.40 / aq=1:1.00 Default : Yes Forced : No Audio ID : 2 Format : AAC LC Format/Info : Advanced Audio Codec Low Complexity Codec ID : A_AAC-2 Duration : 45 min 37 s Bit rate : 64.6 kb/s Channel(s) : 2 channels Channel layout : L R Sampling rate : 44.1 kHz Frame rate : 43.066 FPS (1024 SPF) Compression mode : Lossy Delay relative to video : 46 ms Stream size : 21.1 MiB (2%) Title : [NSBC] Language : Japanese Default : Yes Forced : No Text #1 ID : 3 Format : UTF-8 Codec ID : S_TEXT/UTF8 Codec ID/Info : UTF-8 Plain Text Duration : 45 min 35 s Bit rate : 57 b/s Count of elements : 770 Stream size : 19.3 KiB (0%) Title : [NSBC] [EN] Language : English Default : Yes Forced : No Text #2 ID : 4 Format : UTF-8 Codec ID : S_TEXT/UTF8 Codec ID/Info : UTF-8 Plain Text Duration : 45 min 36 s Bit rate : 60 b/s Count of elements : 774 Stream size : 20.1 KiB (0%) Title : [NSBC] [ID] Language : Indonesian Default : No Forced : No ```

File list

  • [NSBC] MotoKare Mania E05 [WEBDL] [1080p] [V2].mkv (1000.7 MiB)