Kokkoku v2 [Dual-Audio][1080p][x265]

Category:
Date:
2019-11-15 14:32 UTC
Submitter:
Seeders:
9
Information:
No information.
Leechers:
2
File size:
4.3 GiB
Completed:
227
Info hash:
2fd58acd1d79c009979ac89d320146b682d1da92
This v2 release fixes some issues with the [original](https://nyaa.si/view/1190564) encode. The audio has been greatly improved and the gain was fixed, the video has been encoded with 10bit colour range as well as used a slower encoding mode to improve issues with dark areas. The first couple seconds still has some minor but noticeable encoding artifacts, but should only occur for that one scene. The only way to improve it any more is to increase the file size, which if you want that then you should get the original release from [Inverti](https://nyaa.si/view/1188161) Thanks to [noZA_](https://nyaa.si/user/noZA_) for encoding the audio and fixing all the issues that were in my first release. [![cap-Kokkoku-EP01-00-00-01-01.jpg](https://i.postimg.cc/rzsk76Wz/cap-Kokkoku-EP01-00-00-01-01.jpg)](https://postimg.cc/rzsk76Wz) [![cap-Kokkoku-EP01-00-04-17-02.jpg](https://i.postimg.cc/tZCjXwMS/cap-Kokkoku-EP01-00-04-17-02.jpg)](https://postimg.cc/tZCjXwMS) [![cap-Kokkoku-EP01-00-08-07-03.jpg](https://i.postimg.cc/56FMNwsV/cap-Kokkoku-EP01-00-08-07-03.jpg)](https://postimg.cc/56FMNwsV) [![cap-Kokkoku-EP01-00-15-34-06.jpg](https://i.postimg.cc/Yh4tLcqT/cap-Kokkoku-EP01-00-15-34-06.jpg)](https://postimg.cc/Yh4tLcqT) [![cap-Kokkoku-EP01-00-18-24-04.jpg](https://i.postimg.cc/5HmJWbnQ/cap-Kokkoku-EP01-00-18-24-04.jpg)](https://postimg.cc/5HmJWbnQ) [![cap-Kokkoku-EP01-00-22-08-05.jpg](https://i.postimg.cc/7bRkkBM9/cap-Kokkoku-EP01-00-22-08-05.jpg)](https://postimg.cc/7bRkkBM9) ``` General Unique ID : 26864723908409768264964329099301611686 (0x1435F526BC025C1FBD914CB53A91E8A6) Complete name : /media/b5e7/snickers/private/Uploads/Kokkoku v2 [Dual-Audio][1080p][x265]/Kokkoku EP01.mkv Format : Matroska Format version : Version 4 / Version 2 File size : 376 MiB Duration : 26 min 18 s Overall bit rate : 1 999 kb/s Movie name : [Inverti] Kokkoku EP1 [DUAL AUDIO] [1080p] Encoded date : UTC 2019-11-14 10:49:40 Writing application : mkvmerge v19.0.0 ('Brave Captain') 64-bit Writing library : libebml v1.3.5 + libmatroska v1.4.8 / Lavf58.20.100 Video ID : 1 Format : HEVC Format/Info : High Efficiency Video Coding Format profile : Main 10@L4@Main Codec ID : V_MPEGH/ISO/HEVC Duration : 26 min 18 s Bit rate : 1 621 kb/s Width : 1 920 pixels Height : 1 080 pixels Display aspect ratio : 16:9 Frame rate mode : Constant Frame rate : 23.976 (24000/1001) FPS Color space : YUV Chroma subsampling : 4:2:0 Bit depth : 10 bits Bits/(Pixel*Frame) : 0.033 Stream size : 305 MiB (81%) Writing library : x265 2.9:[Linux][GCC 7.3.0][64 bit] 10bit Encoding settings : cpuid=1111039 / frame-threads=3 / wpp / no-pmode / no-pme / no-psnr / no-ssim / log-level=2 / input-csp=1 / input-res=1920x1080 / interlace=0 / total-frames=0 / level-idc=0 / high-tier=1 / uhd-bd=0 / ref=4 / no-allow-non-conformance / no-repeat-headers / annexb / no-aud / no-hrd / info / hash=0 / no-temporal-layers / open-gop / min-keyint=24 / keyint=240 / gop-lookahead=0 / bframes=4 / b-adapt=2 / b-pyramid / bframe-bias=0 / rc-lookahead=25 / lookahead-slices=4 / scenecut=40 / radl=0 / no-intra-refresh / ctu=64 / min-cu-size=8 / rect / no-amp / max-tu-size=32 / tu-inter-depth=1 / tu-intra-depth=1 / limit-tu=0 / rdoq-level=2 / dynamic-rd=0.00 / no-ssim-rd / signhide / no-tskip / nr-intra=0 / nr-inter=0 / no-constrained-intra / strong-intra-smoothing / max-merge=3 / limit-refs=3 / limit-modes / me=3 / subme=3 / merange=57 / temporal-mvp / weightp / no-weightb / no-analyze-src-pics / deblock=0:0 / sao / no-sao-non-deblock / rd=4 / no-early-skip / rskip / no-fast-intra / no-tskip-fast / no-cu-lossless / no-b-intra / no-splitrd-skip / rdpenalty=0 / psy-rd=2.00 / psy-rdoq=1.00 / no-rd-refine / no-lossless / cbqpoffs=0 / crqpoffs=0 / rc=crf / crf=22.0 / qcomp=0.60 / qpstep=4 / stats-write=0 / stats-read=0 / ipratio=1.40 / pbratio=1.30 / aq-mode=1 / aq-strength=1.00 / cutree / zone-count=0 / no-strict-cbr / qg-size=32 / no-rc-grain / qpmax=69 / qpmin=0 / no-const-vbv / sar=1 / overscan=0 / videoformat=5 / range=0 / colorprim=1 / transfer=1 / colormatrix=1 / chromaloc=0 / display-window=0 / max-cll=0,0 / min-luma=0 / max-luma=1023 / log2-max-poc-lsb=8 / vui-timing-info / vui-hrd-info / slices=1 / no-opt-qp-pps / no-opt-ref-list-length-pps / no-multi-pass-opt-rps / scenecut-bias=0.05 / no-opt-cu-delta-qp / no-aq-motion / no-hdr / no-hdr-opt / no-dhdr10-opt / no-idr-recovery-sei / analysis-reuse-level=5 / scale-factor=0 / refine-intra=0 / refine-inter=0 / refine-mv=0 / no-limit-sao / ctu-info=0 / no-lowpass-dct / refine-mv-type=0 / copy-pic=1 / max-ausize-factor=1.0 / no-dynamic-refine / no-single-sei Default : Yes Forced : No Color range : Limited Color primaries : BT.709 Transfer characteristics : BT.709 Matrix coefficients : BT.709 Audio #1 ID : 4 Format : AAC Format/Info : Advanced Audio Codec Format profile : LC Codec ID : A_AAC Duration : 24 min 3 s Bit rate : 197 kb/s Channel(s) : 2 channels Channel positions : Front: L R Sampling rate : 48.0 kHz Frame rate : 46.875 FPS (1024 spf) Compression mode : Lossy Stream size : 33.8 MiB (9%) Title : English Language : English Default : Yes Forced : No Audio #2 ID : 5 Format : AAC Format/Info : Advanced Audio Codec Format profile : LC Codec ID : A_AAC Duration : 24 min 3 s Bit rate : 196 kb/s Channel(s) : 2 channels Channel positions : Front: L R Sampling rate : 48.0 kHz Frame rate : 46.875 FPS (1024 spf) Compression mode : Lossy Stream size : 33.8 MiB (9%) Title : Japanese Language : Japanese Default : No Forced : No Text #1 ID : 2 Format : PGS Muxing mode : zlib Codec ID : S_HDMV/PGS Codec ID/Info : Picture based subtitle format used on BDs/HD-DVDs Duration : 23 min 32 s Bit rate : 10.8 kb/s Count of elements : 114 Stream size : 1.82 MiB (0%) Title : Signs Language : English Default : Yes Forced : No Text #2 ID : 3 Format : PGS Muxing mode : zlib Codec ID : S_HDMV/PGS Codec ID/Info : Picture based subtitle format used on BDs/HD-DVDs Duration : 23 min 32 s Bit rate : 58.3 kb/s Count of elements : 583 Stream size : 9.82 MiB (3%) Title : English Language : English Default : No Forced : No ```

File list

  • Kokkoku v2 [Dual-Audio][1080p][x265]
    • Kokkoku EP01.mkv (376.2 MiB)
    • Kokkoku EP02.mkv (355.6 MiB)
    • Kokkoku EP03.mkv (379.0 MiB)
    • Kokkoku EP04.mkv (362.9 MiB)
    • Kokkoku EP05.mkv (368.4 MiB)
    • Kokkoku EP06.mkv (398.1 MiB)
    • Kokkoku EP07.mkv (349.7 MiB)
    • Kokkoku EP08.mkv (350.5 MiB)
    • Kokkoku EP09.mkv (364.1 MiB)
    • Kokkoku EP10.mkv (372.6 MiB)
    • Kokkoku EP11.mkv (375.6 MiB)
    • Kokkoku EP12.mkv (391.6 MiB)
no 10bit version???...

SnickersZA (uploader)

User
This is in 10bit
Good job. Glad you improved your previous release. I hope this serie get a 2nd season >:C. Thank you :D
Nice one. If you don't care about OP, noise and slight detail loss, this release is good. But I think I'll keep the DragsterPS one. Would prefer to have ~700Mb per episode, but no one did that. Not important, but still weird - https://imgur.com/a/ypW882l
@Shionsan Seems to be a source issue with the BD. Needs a specific anti-aliasing filter to fix that up. I got another 4 other anime that has that similar line art issue on their BDMV and DVDISO sources in either one or more then two scenes. I'm not a surprise that the web-tv source doesn't have it. It really is weird I dunno how something like that can pass through QC during mastering. @SnickersZA slight issue with how you named the file names here not specifying as you had it on your v1. And forgot to delete this line >Movie name : [Inverti] Kokkoku EP1 [DUAL AUDIO] [1080p] Thanks for the release.

SnickersZA (uploader)

User
@noZA_ Thanks for noticing, can't change it now, but yeah, I thought I renamed them in the MKV editor, weird.
@SnickersZA Gonna share it over at Anidex? To overwrite your v1? https://anidex.info/torrent/280185 I uploaded it on some other sites, however, I added trackers to it nothing else if that's cool with you. It's got the same hash numbers and everything. If you don't mind can you grab the torrent from [here](https://nyaa.net/view/1025440). Just need to post it to that site and nothing else the seeders will take over using the trackers I added and those that were already on this torrent. The tracker of Anidex needs to be added to their site to function plus you'll need to add in the tracker: udp://exodus.desync.com:6969/announce as you have it on this torrent under the "Trackers" tab over at Anidex after upload. As I wasn't sure if that one was banned at another site or not, so I didn't want to chance it since I was uploading it as anon so I had to take it out.

SnickersZA (uploader)

User
@noZA_ I've added the torrent to Anidex, thanks for reminding me. No sweat on any modifications to it, I just wanted an h265 encode for my personal archive and figured I'd share it since there wasn't any others at the time. Sharing is caring :)
I notice folks are still grabbing your v1. I think you should set it to hidden or delete it https://nyaa.si/view/1190564 so folks can grab this version. You can set it up in the editing page via "Torrent Flags" if you don't know.

SnickersZA (uploader)

User
Ah, cool, will do, wasn't too sure on the idea of removing torrents, but makes sense.