[NSBC] Shiratori Reiko de Gozaimasu! The Movie [WEBDL] [1080p] [Multi Subs]

Category:
Date:
2019-11-15 02:55 UTC
Submitter:
Seeders:
2
Information:
TlNCQy50bw==
Leechers:
5
File size:
2.2 GiB
Completed:
295
Info hash:
ed13480af20607ea564300303027404043627c24
> ### Subtitles: Arabic, Dutch, English, French, Germany, Greece, Indonesian, Hungarian, Italian, Polish, Portuguese, Romanian, Russian, Spanish, Swedish, Turkish ![](http://img.topddl.net/images/e2bc956100546aa59ae5b3d26af514f9.jpg "") ![](http://img.topddl.net/images/38c8e772ba7d4469bcb37afd9ad2537d.jpg "") ``` General Unique ID : 244662384609610918339645421222534693369 (0xB81042E3258E690313FB583B30D9C1F9) Complete name : I.Am.Reiko.Shiratori!.The.Movie.2016.1080p.WEB-DL.DDP2.0.x264-NSBC.mkv Format : Matroska Format version : Version 4 File size : 2.16 GiB Duration : 1 h 31 min Overall bit rate : 3 385 kb/s Movie name : I.Am.Reiko.Shiratori!.The.Movie.2016.1080p.WEB-DL.DDP2.0.x264-NSBC Encoded by : NoNe | NSBC Encoded date : UTC 2019-11-15 00:39:40 Writing application : mkvmerge v39.0.0 ('In The Waiting Line') 64-bit Writing library : libebml v1.3.9 + libmatroska v1.5.2 Copyright : NSBC Comment : NoNe | NSBC Video ID : 1 Format : AVC Format/Info : Advanced Video Codec Format profile : High@L4 Format settings : CABAC / 4 Ref Frames Format settings, CABAC : Yes Format settings, Reference frames : 4 frames Codec ID : V_MPEG4/ISO/AVC Duration : 1 h 31 min Bit rate : 3 070 kb/s Width : 1 920 pixels Height : 1 080 pixels Display aspect ratio : 16:9 Frame rate mode : Constant Frame rate : 24.000 FPS Color space : YUV Chroma subsampling : 4:2:0 Bit depth : 8 bits Scan type : Progressive Bits/(Pixel*Frame) : 0.062 Stream size : 1.95 GiB (90%) Title : [NSBC] Writing library : x264 core 148 Encoding settings : cabac=1 / ref=3 / deblock=1:0:0 / analyse=0x3:0x113 / me=umh / subme=10 / psy=1 / psy_rd=1.00:0.00 / mixed_ref=1 / me_range=24 / chroma_me=1 / trellis=2 / 8x8dct=1 / cqm=0 / deadzone=21,11 / fast_pskip=1 / chroma_qp_offset=-2 / threads=12 / lookahead_threads=1 / sliced_threads=0 / nr=0 / decimate=1 / interlaced=0 / bluray_compat=0 / constrained_intra=0 / bframes=3 / b_pyramid=2 / b_adapt=2 / b_bias=0 / direct=1 / weightb=1 / open_gop=0 / weightp=2 / keyint=120 / keyint_min=61 / scenecut=0 / intra_refresh=0 / rc_lookahead=60 / rc=2pass / mbtree=1 / bitrate=3070 / ratetol=1.0 / qcomp=0.60 / qpmin=0 / qpmax=69 / qpstep=4 / cplxblur=20.0 / qblur=0.5 / vbv_maxrate=6140 / vbv_bufsize=9210 / nal_hrd=none / filler=0 / ip_ratio=1.40 / aq=1:1.00 Default : Yes Forced : No Audio #1 ID : 2 Format : E-AC-3 Format/Info : Enhanced AC-3 Commercial name : Dolby Digital Plus Codec ID : A_EAC3 Duration : 1 h 31 min Bit rate mode : Constant Bit rate : 128 kb/s Channel(s) : 2 channels Channel layout : L R Sampling rate : 48.0 kHz Frame rate : 31.250 FPS (1536 SPF) Compression mode : Lossy Delay relative to video : -83 ms Stream size : 83.6 MiB (4%) Title : [NSBC] Language : Japanese Service kind : Complete Main Default : Yes Forced : No Audio #2 ID : 3 Format : AAC LC Format/Info : Advanced Audio Codec Low Complexity Codec ID : A_AAC-2 Duration : 1 h 31 min Bit rate : 192 kb/s Channel(s) : 2 channels Channel layout : L R Sampling rate : 48.0 kHz Frame rate : 46.875 FPS (1024 SPF) Compression mode : Lossy Delay relative to video : -83 ms Stream size : 125 MiB (6%) Title : [NSBC] Language : Japanese Default : No Forced : No ```

File list

  • I.Am.Reiko.Shiratori!.The.Movie.2016.1080p.WEB-DL.DDP2.0.x264-NSBC.mkv (2.2 GiB)
Good job on movie! http://asianwiki.com/Shiratori_Reiko_de_Gozaimasu!_The_Movie
tq so so mucchhh <3