青春ブタ野郎はゆめみる少女の夢を見ない / Seishun Buta Yaro wa Yumemiru Shoujo no Yume wo Minai - Movie (WEB-DL 1920x1080 AAC)

Category:
Date:
2019-11-13 08:58 UTC
Submitter:
Seeders:
32
Information:
No information.
Leechers:
4
File size:
1.5 GiB
Completed:
4166
Info hash:
6fc947a428ed8d1a28fb3c1678f84c092fa02abd
![](http://a.kuibu.net/img/2019/11/13/p2544006194717937dcd711302b.jpg) ## **NAME** #### 青春ブタ野郎はゆめみる少女の夢を見ない #### Rascal Does Not Dream of a Dreaming Girl #### Seishun Buta Yaro wa Yumemiru Shoujo no Yume wo Minai #### 青春期笨蛋不会梦到怀梦美少女 #### 青春笨蛋少年不做怀梦美少女的梦 ### MediaInfo General Complete name : Seishun Buta Yaro wa Yumemiru Shoujo no Yume wo Minai - Movie (WEB-DL 1920x1080 AAC).mp4 Format : MPEG-4 Format profile : Base Media Codec ID : isom (isom/iso2/avc1/mp41) File size : 1.52 GiB Duration : 1 h 29 min Overall bit rate : 2 422 kb/s Writing application : Lavf58.33.100 Video ID : 1 Format : AVC Format/Info : Advanced Video Codec Format profile : High@L4 Format settings : CABAC / 4 Ref Frames Format settings, CABAC : Yes Format settings, Reference frames : 4 frames Codec ID : avc1 Codec ID/Info : Advanced Video Coding Duration : 1 h 29 min Bit rate : 2 097 kb/s Width : 1 920 pixels Height : 1 080 pixels Display aspect ratio : 16:9 Frame rate mode : Variable Frame rate : 23.976 (23976/1000) FPS Minimum frame rate : 16.129 FPS Maximum frame rate : 24.390 FPS Color space : YUV Chroma subsampling : 4:2:0 Bit depth : 8 bits Scan type : Progressive Bits/(Pixel*Frame) : 0.042 Stream size : 1.32 GiB (87%) Writing library : BiliBili H264 Encoder v1.0 Codec configuration box : avcC Audio ID : 2 Format : AAC LC Format/Info : Advanced Audio Codec Low Complexity Codec ID : mp4a-40-2 Duration : 1 h 29 min Bit rate mode : Constant Bit rate : 320 kb/s Channel(s) : 2 channels Channel layout : L R Sampling rate : 48.0 kHz Frame rate : 46.875 FPS (1024 SPF) Compression mode : Lossy Stream size : 206 MiB (13%) Default : Yes Alternate group : 1 ### Screenshots ![](http://a.kuibu.net/img/2019/11/13/--1080.mp4a9ca701bdbf927e9.jpg)

File list

  • Seishun Buta Yaro wa Yumemiru Shoujo no Yume wo Minai - Movie (WEB-DL 1920x1080 AAC).mp4 (1.5 GiB)
Subs anyone ,??
this one is released from china
hey if anyone has any subs it would be really cool
I've got english subs made for this raw in this discord: http://discord.gg/Zhj6cxp. Full TS and full TL. Similar to the OTL. Want beta testers who can't wait for the official release.
The english subs were released and the Discord will no longer have them. No need to join.
I can't find the movie soundtrack by fox capture plan :'(