[NSBC] Watashi ni Unmei no Koi Nante Arienaitte Omotteta SP [WEBDL] [1080p] [Multi Subs]

Category:
Date:
2019-11-13 05:23 UTC
Submitter:
Seeders:
5
Information:
TlNCQy50bw==
Leechers:
4
File size:
1.4 GiB
Completed:
371
Info hash:
18faa3b326b6036312ea549c6a5087eaf6a3a15b
> ### Subtitle: Dutch, English, French, Germany, Italian, Portuguese, Spanish ![](http://img.topddl.net/images/3aa29f4b09887f3ced36e3639ace87c0.jpg "") ![](http://img.topddl.net/images/588d4b19ce349d12e2c247bfea83ea1a.jpg "") ``` General Unique ID : 56498605974158365328707058694107470909 (0x2A813C573D70772BDA355D6109E09C3D) Complete name : [NSBC] Watashi ni Unmei no Koi Nante Arienaitte Omotteta SP [WEBDL] [1080p].mkv Format : Matroska Format version : Version 4 File size : 1.44 GiB Duration : 1 h 30 min Overall bit rate : 2 270 kb/s Movie name : [NSBC] Watashi ni Unmei no Koi Nante Arienaitte Omotteta SP [WEBDL] [1080p] Encoded by : NoNe | NSBC Encoded date : UTC 2019-11-13 05:14:45 Writing application : mkvmerge v39.0.0 ('In The Waiting Line') 64-bit Writing library : libebml v1.3.9 + libmatroska v1.5.2 Copyright : NSBC Comment : NoNe | NSBC Video ID : 1 Format : AVC Format/Info : Advanced Video Codec Format profile : High@L4 Format settings : CABAC / 4 Ref Frames Format settings, CABAC : Yes Format settings, Reference frames : 4 frames Codec ID : V_MPEG4/ISO/AVC Duration : 1 h 30 min Bit rate : 2 079 kb/s Width : 1 920 pixels Height : 1 080 pixels Display aspect ratio : 16:9 Frame rate mode : Constant Frame rate : 30.000 FPS Color space : YUV Chroma subsampling : 4:2:0 Bit depth : 8 bits Scan type : Progressive Bits/(Pixel*Frame) : 0.033 Stream size : 1.31 GiB (91%) Title : [NSBC] Writing library : x264 core 148 Encoding settings : cabac=1 / ref=3 / deblock=1:0:0 / analyse=0x3:0x113 / me=umh / subme=10 / psy=1 / psy_rd=1.00:0.00 / mixed_ref=1 / me_range=24 / chroma_me=1 / trellis=2 / 8x8dct=1 / cqm=0 / deadzone=21,11 / fast_pskip=1 / chroma_qp_offset=-2 / threads=12 / lookahead_threads=1 / sliced_threads=0 / nr=0 / decimate=1 / interlaced=0 / bluray_compat=0 / constrained_intra=0 / bframes=3 / b_pyramid=2 / b_adapt=2 / b_bias=0 / direct=1 / weightb=1 / open_gop=0 / weightp=2 / keyint=150 / keyint_min=76 / scenecut=0 / intra_refresh=0 / rc_lookahead=60 / rc=2pass / mbtree=1 / bitrate=2079 / ratetol=1.0 / qcomp=0.60 / qpmin=0 / qpmax=69 / qpstep=4 / cplxblur=20.0 / qblur=0.5 / vbv_maxrate=4158 / vbv_bufsize=6237 / nal_hrd=none / filler=0 / ip_ratio=1.40 / aq=1:1.00 Default : Yes Forced : No Audio ID : 2 Format : AAC LC Format/Info : Advanced Audio Codec Low Complexity Codec ID : A_AAC-2 Duration : 1 h 30 min Bit rate : 192 kb/s Channel(s) : 2 channels Channel layout : L R Sampling rate : 48.0 kHz Frame rate : 46.875 FPS (1024 SPF) Compression mode : Lossy Delay relative to video : -67 ms Stream size : 125 MiB (8%) Title : [NSBC] Language : Japanese Default : Yes Forced : No Text #1 ID : 3 Format : UTF-8 Codec ID : S_TEXT/UTF8 Codec ID/Info : UTF-8 Plain Text Duration : 1 h 30 min Bit rate : 64 b/s Count of elements : 1174 Stream size : 42.6 KiB (0%) Title : [NSBC] Language : Dutch Default : Yes Forced : No Text #2 ID : 4 Format : UTF-8 Codec ID : S_TEXT/UTF8 Codec ID/Info : UTF-8 Plain Text Duration : 1 h 30 min Bit rate : 61 b/s Count of elements : 1174 Stream size : 41.0 KiB (0%) Title : [NSBC] Language : English Default : No Forced : No Text #3 ID : 5 Format : UTF-8 Codec ID : S_TEXT/UTF8 Codec ID/Info : UTF-8 Plain Text Duration : 1 h 30 min Bit rate : 69 b/s Count of elements : 1174 Stream size : 46.3 KiB (0%) Title : [NSBC] Language : French Default : No Forced : No Text #4 ID : 6 Format : UTF-8 Codec ID : S_TEXT/UTF8 Codec ID/Info : UTF-8 Plain Text Duration : 1 h 30 min Bit rate : 69 b/s Count of elements : 1174 Stream size : 46.3 KiB (0%) Title : [NSBC] Language : German Default : No Forced : No Text #5 ID : 7 Format : UTF-8 Codec ID : S_TEXT/UTF8 Codec ID/Info : UTF-8 Plain Text Duration : 1 h 30 min Bit rate : 65 b/s Count of elements : 1174 Stream size : 43.8 KiB (0%) Title : [NSBC] Language : Italian Default : No Forced : No Text #6 ID : 8 Format : UTF-8 Codec ID : S_TEXT/UTF8 Codec ID/Info : UTF-8 Plain Text Duration : 1 h 30 min Bit rate : 67 b/s Count of elements : 1174 Stream size : 44.5 KiB (0%) Title : [NSBC] Language : Portuguese Default : No Forced : No Text #7 ID : 9 Format : UTF-8 Codec ID : S_TEXT/UTF8 Codec ID/Info : UTF-8 Plain Text Duration : 1 h 30 min Bit rate : 69 b/s Count of elements : 1174 Stream size : 46.2 KiB (0%) Title : [NSBC] Language : Spanish Default : No Forced : No ```

File list

  • [NSBC] Watashi ni Unmei no Koi Nante Arienaitte Omotteta SP [WEBDL] [1080p].mkv (1.4 GiB)
Sankyuu!! http://asianwiki.com/Watashi_ni_Unmei_no_Koi_Nante_Arienaitte_Omotteta