[TOPKEK] One Punch Man (2019) - S02E05 - [1080p] [x264 AAC] [Dual Audio]

Category:
Date:
2019-11-11 15:41 UTC
Submitter:
Seeders:
0
Information:
No information.
Leechers:
1
File size:
832.4 MiB
Completed:
143
Info hash:
6cbe7945096315bdc838e1c31ce76f8550a78cdf
Format : Matroska Format version : Version 4 File size : 832 MiB Duration : 23 min 50 s Overall bit rate : 4 882 kb/s Encoded date : UTC 2019-11-11 15:15:52 Writing application : mkvmerge v38.0.0 ('The Silent Type') 64-bit Writing library : libebml v1.3.9 + libmatroska v1.5.2 Video ID : 1 Format : AVC Format/Info : Advanced Video Codec Format profile : High@L4 Format settings : CABAC / 4 Ref Frames Format settings, CABAC : Yes Format settings, ReFrames : 4 frames Codec ID : V_MPEG4/ISO/AVC Duration : 22 min 1 s Bit rate : 4 876 kb/s Width : 1 920 pixels Height : 1 080 pixels Display aspect ratio : 16:9 Frame rate mode : Constant Frame rate : 29.970 (30000/1001) FPS Original frame rate : 29.970 (29970/1000) FPS Color space : YUV Chroma subsampling : 4:2:0 Bit depth : 8 bits Scan type : Progressive Bits/(Pixel*Frame) : 0.078 Stream size : 768 MiB (92%) Title : [TOPKEK] Default : Yes Forced : No Audio #1 ID : 2 Format : AAC LC Format/Info : Advanced Audio Codec Low Complexity Codec ID : A_AAC-2 Duration : 22 min 1 s Bit rate : 126 kb/s Channel(s) : 2 channels Channel layout : L R Sampling rate : 44.1 kHz Frame rate : 43.066 FPS (1024 SPF) Compression mode : Lossy Stream size : 19.8 MiB (2%) Title : English Language : English Default : Yes Forced : No Audio #2 ID : 3 Format : AAC LC Format/Info : Advanced Audio Codec Low Complexity Codec ID : A_AAC-2 Duration : 23 min 49 s Bit rate : 256 kb/s Channel(s) : 2 channels Channel layout : L R Sampling rate : 48.0 kHz Frame rate : 46.875 FPS (1024 SPF) Compression mode : Lossy Delay relative to video : 2 ms Stream size : 43.6 MiB (5%) Title : Japanese Language : Japanese Default : No Forced : No Text ID : 4 Format : ASS Codec ID : S_TEXT/ASS Codec ID/Info : Advanced Sub Station Alpha Duration : 23 min 49 s Bit rate : 151 b/s Count of elements : 385 Compression mode : Lossless Stream size : 26.4 KiB (0%) Title : English Language : English Default : No Forced : No

File list

  • [TOPKEK] One Punch Man (2019) - S02E05 - [1080p] [x264 AAC] [Dual Audio].mkv (832.4 MiB)