[NSBC] MotoKare Mania E04 [WEBDL] [1080p]

Category:
Date:
2019-11-08 22:33 UTC
Submitter:
Seeders:
0
Information:
TlNCQy50bw==
Leechers:
3
File size:
729.7 MiB
Completed:
368
Info hash:
5613bd24efc3c9b6ac054285fbba758164ea78f6
> ### Subtitle English & Indonesian > ### Also available on [Subscene](https://subscene.com/subtitles/motokare-mania-ex-enthusiasts-motokare-mania) > ### V2 will available on my personal [blog](https://nosobacrew.wordpress.com/2019/09/11/v2/) ;) ![](https://i.fod.fujitv.co.jp/pc/image/ep/4l22/wbhjfr_4l22_cxbg_001_wm.jpg "") ![](http://img.topddl.net/images/713f7d297274103a167876336df64cbd.jpg "") ``` General Unique ID : 70340521928572677629373287146092001419 (0x34EB177CD6306C4D9DFCFB7F7FDC788B) Complete name : [NSBC] MotoKare Mania E04 [WEBDL] [1080p].mkv Format : Matroska Format version : Version 4 File size : 730 MiB Duration : 45 min 43 s Overall bit rate mode : Variable Overall bit rate : 2 231 kb/s Movie name : [NSBC] MotoKare Mania E04 [WEBDL] [1080p] Encoded by : NoNe | NSBC Encoded date : UTC 2019-11-08 22:28:25 Writing application : mkvmerge v39.0.0 ('In The Waiting Line') 64-bit Writing library : libebml v1.3.9 + libmatroska v1.5.2 Copyright : NSBC Comment : NoNe | NSBC DATE_RECORDED : 2019 Video ID : 1 Format : AVC Format/Info : Advanced Video Codec Format profile : High@L4.1 Format settings : CABAC / 4 Ref Frames Format settings, CABAC : Yes Format settings, Reference frames : 4 frames Codec ID : V_MPEG4/ISO/AVC Duration : 45 min 43 s Bit rate mode : Variable Bit rate : 2 132 kb/s Maximum bit rate : 4 500 kb/s Width : 1 920 pixels Height : 1 080 pixels Display aspect ratio : 16:9 Frame rate mode : Constant Frame rate : 29.970 (30000/1001) FPS Original frame rate : 29.970 (29970/1000) FPS Color space : YUV Chroma subsampling : 4:2:0 Bit depth : 8 bits Scan type : Progressive Bits/(Pixel*Frame) : 0.034 Stream size : 697 MiB (96%) Title : [NSBC] Writing library : VOLO1.4.1 Default : Yes Forced : No Audio ID : 2 Format : AAC LC Format/Info : Advanced Audio Codec Low Complexity Codec ID : A_AAC-2 Duration : 45 min 43 s Bit rate : 96.0 kb/s Channel(s) : 2 channels Channel layout : L R Sampling rate : 48.0 kHz Frame rate : 46.875 FPS (1024 SPF) Compression mode : Lossy Delay relative to video : -42 ms Stream size : 31.4 MiB (4%) Title : [NSBC] Language : Japanese Default : Yes Forced : No Text #1 ID : 3 Format : UTF-8 Codec ID : S_TEXT/UTF8 Codec ID/Info : UTF-8 Plain Text Duration : 45 min 41 s Bit rate : 48 b/s Count of elements : 708 Stream size : 16.2 KiB (0%) Title : [NSBC] [EN] Language : English Default : Yes Forced : No Text #2 ID : 4 Format : UTF-8 Codec ID : S_TEXT/UTF8 Codec ID/Info : UTF-8 Plain Text Duration : 45 min 41 s Bit rate : 51 b/s Count of elements : 711 Stream size : 17.2 KiB (0%) Title : [NSBC] [ID] Language : Indonesian Default : No Forced : No ```

File list

  • [NSBC] MotoKare Mania E04 [WEBDL] [1080p].mkv (729.7 MiB)