[TOPKEK] My Teenage Romantic Comedy SNAFU (Yahari Ore no Seishun LoveCome wa Machigatte Iru) - S01E06 - [1080p] [x264 10bit] [FLAC] [Dual Audio]

Category:
Date:
2019-11-08 20:33 UTC
Submitter:
Seeders:
2
Information:
No information.
Leechers:
1
File size:
1.5 GiB
Completed:
32
Info hash:
c2b94a1616d42ac59d567a8c36059df030773d37
Format : Matroska Format version : Version 4 File size : 1.48 GiB Duration : 24 min 12 s Overall bit rate mode : Variable Overall bit rate : 8 741 kb/s Encoded date : UTC 2019-11-08 15:40:37 Writing application : mkvmerge v38.0.0 ('The Silent Type') 64-bit Writing library : libebml v1.3.9 + libmatroska v1.5.2 Attachments : Blokletters-Balpen.ttf / COPILB.ttf / Diverda Sans Com Medium Italics.ttf / Diverda Sans Com Medium.ttf / FuckMyr v9001.ttf / Senran gothic ep.ttf / Yryr minc R.ttf Video ID : 2 Format : AVC Format/Info : Advanced Video Codec Format profile : High 10@L5.1 Format settings : CABAC / 16 Ref Frames Format settings, CABAC : Yes Format settings, ReFrames : 16 frames Codec ID : V_MPEG4/ISO/AVC Duration : 24 min 10 s Bit rate : 7 190 kb/s Width : 1 920 pixels Height : 1 080 pixels Display aspect ratio : 16:9 Frame rate mode : Constant Frame rate : 23.976 (24000/1001) FPS Color space : YUV Chroma subsampling : 4:2:0 Bit depth : 10 bits Scan type : Progressive Bits/(Pixel*Frame) : 0.145 Stream size : 1.21 GiB (82%) Title : [TOPKEK] Writing library : x264 core 133 r2334 a3ac64b Encoding settings : cabac=1 / ref=16 / deblock=1:0:0 / analyse=0x3:0x133 / me=tesa / subme=11 / psy=1 / psy_rd=1.00:0.00 / mixed_ref=1 / me_range=24 / chroma_me=1 / trellis=2 / 8x8dct=1 / cqm=0 / deadzone=21,11 / fast_pskip=0 / chroma_qp_offset=-2 / threads=12 / lookahead_threads=3 / sliced_threads=0 / nr=0 / decimate=1 / interlaced=0 / bluray_compat=0 / constrained_intra=0 / bframes=16 / b_pyramid=2 / b_adapt=2 / b_bias=0 / direct=3 / weightb=1 / open_gop=0 / weightp=2 / keyint=250 / keyint_min=23 / scenecut=40 / intra_refresh=0 / rc_lookahead=60 / rc=crf / mbtree=1 / crf=13.0 / qcomp=0.60 / qpmin=0 / qpmax=81 / qpstep=4 / ip_ratio=1.40 / aq=1:1.00 Default : Yes Forced : No Audio #1 ID : 1 Format : AAC LC Format/Info : Advanced Audio Codec Low Complexity Codec ID : A_AAC-2 Duration : 24 min 11 s Bit rate : 159 kb/s Channel(s) : 2 channels Channel layout : L R Sampling rate : 48.0 kHz Frame rate : 46.875 FPS (1024 SPF) Compression mode : Lossy Delay relative to video : 9 ms Stream size : 27.6 MiB (2%) Title : English Language : English Default : Yes Forced : No Audio #2 ID : 3 Format : FLAC Format/Info : Free Lossless Audio Codec Codec ID : A_FLAC Duration : 24 min 10 s Bit rate mode : Variable Bit rate : 1 398 kb/s Channel(s) : 2 channels Channel layout : L R Sampling rate : 48.0 kHz Frame rate : 11.719 FPS (4096 SPF) Bit depth : 24 bits Compression mode : Lossless Stream size : 242 MiB (16%) Title : Japanese Writing library : libFLAC 1.2.1 (UTC 2007-09-17) Language : Japanese Default : No Forced : No Text ID : 4 Format : ASS Codec ID : S_TEXT/ASS Codec ID/Info : Advanced Sub Station Alpha Duration : 23 min 55 s Bit rate : 159 b/s Count of elements : 400 Compression mode : Lossless Stream size : 28.0 KiB (0%) Title : English Language : English Default : No Forced : No

File list

  • [TOPKEK] My Teenage Romantic Comedy SNAFU (Yahari Ore no Seishun LoveCome wa Machigatte Iru) - S01E06 - [1080p] [x264 10bit] [FLAC] [Dual Audio].mkv.mkv (1.5 GiB)