[TOPKEK] Fire Force (Enen no Shoubutai) - S01E16 - [1080p] [x264 AAC] [Dual Audio]

Category:
Date:
2019-11-08 18:18 UTC
Submitter:
Seeders:
3
Information:
No information.
Leechers:
0
File size:
1.4 GiB
Completed:
52
Info hash:
15eacf3d05e274f749b139da7e833796125fb0b2
Format : Matroska Format version : Version 4 File size : 1.40 GiB Duration : 23 min 58 s Overall bit rate : 8 338 kb/s Encoded date : UTC 2019-11-08 18:14:43 Writing application : mkvmerge v38.0.0 ('The Silent Type') 64-bit Writing library : libebml v1.3.9 + libmatroska v1.5.2 Video ID : 1 Format : AVC Format/Info : Advanced Video Codec Format profile : High@L4 Format settings : CABAC / 4 Ref Frames Format settings, CABAC : Yes Format settings, ReFrames : 4 frames Codec ID : V_MPEG4/ISO/AVC Duration : 23 min 56 s Bit rate : 8 000 kb/s Width : 1 920 pixels Height : 1 080 pixels Display aspect ratio : 16:9 Frame rate mode : Constant Frame rate : 23.976 (24000/1001) FPS Color space : YUV Chroma subsampling : 4:2:0 Bit depth : 8 bits Scan type : Progressive Bits/(Pixel*Frame) : 0.161 Stream size : 1.33 GiB (95%) Title : [TOPKEK] Writing library : x264 core 142 Encoding settings : cabac=1 / ref=4 / deblock=1:1:1 / analyse=0x3:0x113 / me=umh / subme=8 / psy=1 / psy_rd=0.40:0.00 / mixed_ref=1 / me_range=16 / chroma_me=1 / trellis=1 / 8x8dct=1 / cqm=0 / deadzone=21,11 / fast_pskip=1 / chroma_qp_offset=-2 / threads=12 / lookahead_threads=2 / sliced_threads=0 / nr=0 / decimate=1 / interlaced=0 / bluray_compat=0 / constrained_intra=0 / bframes=0 / weightp=2 / keyint=96 / keyint_min=48 / scenecut=40 / intra_refresh=0 / rc_lookahead=48 / rc=2pass / mbtree=1 / bitrate=8000 / ratetol=1.0 / qcomp=0.60 / qpmin=0 / qpmax=69 / qpstep=4 / cplxblur=20.0 / qblur=0.5 / vbv_maxrate=12000 / vbv_bufsize=18000 / nal_hrd=none / filler=0 / ip_ratio=1.40 / aq=1:0.60 Default : Yes Forced : No Audio #1 ID : 2 Format : AAC LC Format/Info : Advanced Audio Codec Low Complexity Codec ID : A_AAC-2 Duration : 23 min 57 s Bit rate : 128 kb/s Channel(s) : 2 channels Channel layout : L R Sampling rate : 44.1 kHz Frame rate : 43.066 FPS (1024 SPF) Compression mode : Lossy Stream size : 21.9 MiB (2%) Title : Japanese Language : Japanese Default : No Forced : No Audio #2 ID : 6 Format : AAC LC Format/Info : Advanced Audio Codec Low Complexity Codec ID : A_AAC-2 Duration : 23 min 56 s Bit rate : 253 kb/s Channel(s) : 2 channels Channel layout : L R Sampling rate : 48.0 kHz Frame rate : 46.875 FPS (1024 SPF) Compression mode : Lossy Delay relative to video : 5 ms Stream size : 43.4 MiB (3%) Title : English Language : English Default : Yes Forced : No Text #1 ID : 3 Format : ASS Codec ID : S_TEXT/ASS Codec ID/Info : Advanced Sub Station Alpha Duration : 23 min 49 s Bit rate : 113 b/s Count of elements : 282 Compression mode : Lossless Stream size : 19.8 KiB (0%) Title : English (Full) Language : English Default : No Forced : No Text #2 ID : 4 Format : UTF-8 Codec ID : S_TEXT/UTF8 Codec ID/Info : UTF-8 Plain Text Duration : 22 min 13 s Bit rate : 119 b/s Count of elements : 279 Stream size : 19.4 KiB (0%) Title : English (No Signs) Language : English Default : No Forced : No Text #3 ID : 5 Format : UTF-8 Codec ID : S_TEXT/UTF8 Codec ID/Info : UTF-8 Plain Text Duration : 20 min 58 s Bit rate : 1 b/s Count of elements : 3 Stream size : 168 Bytes (0%) Title : English (Only Signs) Language : English Default : No Forced : No

File list

  • [TOPKEK] Fire Force (Enen no Shoubutai) - S01E16 - [1080p] [x264 AAC] [Dual Audio].mkv (1.4 GiB)