[TOPKEK] Lupin III Part V - S01E16 - [1080p] [x264 AAC] [Dual Audio]

Category:
Date:
2019-11-07 20:50 UTC
Submitter:
Seeders:
7
Information:
No information.
Leechers:
0
File size:
814.6 MiB
Completed:
86
Info hash:
f6bc0bc75f7e03aab679bc3ba711d65b5dc6e449
Format : Matroska Format version : Version 4 File size : 815 MiB Duration : 22 min 10 s Overall bit rate : 5 143 kb/s Encoded date : UTC 2019-11-06 22:36:17 Writing application : mkvmerge v38.0.0 ('The Silent Type') 64-bit Writing library : libebml v1.3.9 + libmatroska v1.5.2 Video ID : 1 Format : AVC Format/Info : Advanced Video Codec Format profile : High@L4 Format settings : CABAC / 4 Ref Frames Format settings, CABAC : Yes Format settings, ReFrames : 4 frames Codec ID : V_MPEG4/ISO/AVC Duration : 22 min 5 s Bit rate : 4 902 kb/s Width : 1 920 pixels Height : 1 080 pixels Display aspect ratio : 16:9 Frame rate mode : Constant Frame rate : 29.970 (30000/1001) FPS Original frame rate : 29.970 (29970/1000) FPS Color space : YUV Chroma subsampling : 4:2:0 Bit depth : 8 bits Scan type : Progressive Bits/(Pixel*Frame) : 0.079 Stream size : 775 MiB (95%) Title : [TOPKEK] Default : Yes Forced : No Audio #1 ID : 2 Format : AAC LC Format/Info : Advanced Audio Codec Low Complexity Codec ID : A_AAC-2 Duration : 22 min 5 s Bit rate : 126 kb/s Channel(s) : 2 channels Channel layout : L R Sampling rate : 44.1 kHz Frame rate : 43.066 FPS (1024 SPF) Compression mode : Lossy Stream size : 19.8 MiB (2%) Title : English Language : English Default : Yes Forced : No Audio #2 ID : 3 Format : AAC LC Format/Info : Advanced Audio Codec Low Complexity Codec ID : A_AAC-2 Duration : 22 min 10 s Bit rate : 128 kb/s Channel(s) : 2 channels Channel layout : L R Sampling rate : 44.1 kHz Frame rate : 43.066 FPS (1024 SPF) Compression mode : Lossy Stream size : 20.3 MiB (2%) Title : Japanese Language : Japanese Default : No Forced : No Text ID : 4 Format : ASS Codec ID : S_TEXT/ASS Codec ID/Info : Advanced Sub Station Alpha Duration : 20 min 40 s Bit rate : 126 b/s Count of elements : 270 Compression mode : Lossless Stream size : 19.1 KiB (0%) Title : English Language : English Default : No Forced : No

File list

  • [TOPKEK] Lupin III Part V - S01E16 - [1080p] [x264 AAC] [Dual Audio].mkv (814.6 MiB)