[60FPS] Hatsune Miku Project DIVA Dreamy Theater Music Video [2010-2012, Vocaloid / JPop, 720p]

Category:
Date:
2019-11-02 03:17 UTC
Submitter:
Seeders:
2
File size:
18.9 GiB
Completed:
116
Info hash:
2e8d2180cfdb1a660dd395bbd798cbd73ed9499e
__Year:__ 2010-2012 гг. __Genre:__ Vocaloid, JPop __Format:__ MP4 __Video:__ AVC, 1280x720, (16:9), 10 Mbps, 60 fps __Audio:__ AAC, 256 kbps, 48.0 kHz, 2 ch __MEDIAINFO:__ ``` General General Complete name : F:\Project Diva Music Video\DT1\01.World is Mine.mp4 Format : MPEG-4 Format profile : Base Media Codec ID : isom File size : 210 MiB Duration : 2mn 55s Overall bit rate : 10.0 Mbps Writing application : Lavf55.19.104 Video ID : 1 Format : AVC Format/Info : Advanced Video Codec Format profile : High@L4.0 Format settings, CABAC : No Format settings, ReFrames : 1 frame Codec ID : avc1 Codec ID/Info : Advanced Video Coding Duration : 2mn 55s Bit rate : 10 000 Kbps Width : 1 280 pixels Height : 720 pixels Display aspect ratio : 16:9 Frame rate mode : Constant Frame rate : 60.000 fps Color space : YUV Chroma subsampling : 4:2:0 Bit depth : 8 bits Scan type : Progressive Bits/(Pixel*Frame) : 0.181 Stream size : 204 MiB (97%) Writing library : x264 core 116 r2019 9cc407d Encoding settings : cabac=0 / ref=1 / deblock=1:0:0 / analyse=0x3:0x113 / me=umh / subme=7 / psy=1 / psy_rd=1.00:0.00 / mixed_ref=0 / me_range=16 / chroma_me=1 / trellis=1 / 8x8dct=1 / cqm=0 / deadzone=21,11 / fast_pskip=1 / chroma_qp_offset=-2 / threads=6 / sliced_threads=0 / nr=0 / decimate=1 / interlaced=0 / bluray_compat=0 / constrained_intra=0 / bframes=0 / weightp=2 / keyint=280 / keyint_min=28 / scenecut=40 / intra_refresh=0 / rc_lookahead=40 / rc=abr / mbtree=1 / bitrate=10000 / ratetol=1.0 / qcomp=0.60 / qpmin=0 / qpmax=69 / qpstep=4 / ip_ratio=1.40 / aq=1:1.00 Audio ID : 2 Format : AAC Format/Info : Advanced Audio Codec Format profile : LC Codec ID : 40 Duration : 2mn 55s Bit rate mode : Constant Bit rate : 255 Kbps Channel count : 2 channels Channel positions : Front: L R Sampling rate : 48.0 KHz Compression mode : Lossy Stream size : 5.32 MiB (3%)

File list

  • Project Diva Music Video
    • DT1
      • 01.World is Mine.mp4 (209.6 MiB)
      • 02.The Rebel.mp4 (190.4 MiB)
      • 03.Love is War.mp4 (191.5 MiB)
      • 04.That One Second Slow Motion.mp4 (234.1 MiB)
      • 05.Melt.mp4 (227.1 MiB)
      • 06.Far Away.mp4 (205.2 MiB)
      • 07.Strobo Nights.mp4 (218.3 MiB)
      • 08.Star Story.mp4 (222.0 MiB)
      • 09.Last Night, Good Night.mp4 (240.1 MiB)
      • 10.Packaged.mp4 (214.6 MiB)
      • 11.SweetDrops After the Rain.mp4 (225.0 MiB)
      • 12.Miracle Paint.mp4 (177.4 MiB)
      • 13.Bad Mood Waltz.mp4 (190.3 MiB)
      • 14.Marginal.mp4 (218.1 MiB)
      • 15.Dreaming Leaf -Dreaming Words-.mp4 (208.1 MiB)
      • 16.Song of Wastelands, Forests and Magic.mp4 (240.3 MiB)
      • 17.White Dove.mp4 (230.7 MiB)
      • 18.Moon.mp4 (228.0 MiB)
      • 19.Beware of Miku Miku Bacteria.mp4 (239.2 MiB)
      • 20.Song of Life.mp4 (245.1 MiB)
      • 21.The secret garden.mp4 (241.7 MiB)
      • 22.DEAR COCOA GIRLS.mp4 (227.5 MiB)
      • 23.Velvet Arabesque.mp4 (258.5 MiB)
      • 24.Updating Your Love List.mp4 (251.3 MiB)
      • 25.VOC@LOID in Love.mp4 (223.6 MiB)
      • 26.levan Polkka.mp4 (191.3 MiB)
      • 27.Your Diva.mp4 (239.7 MiB)
      • 28.Electric Angel.mp4 (225.3 MiB)
      • 29.The Disappearance of Hatsune Miku.mp4 (168.5 MiB)
      • 30.Golden Holy Night Rotting into the Frost and Snow.mp4 (212.1 MiB)
      • 31.I'll Make You Do the Miku Miku.mp4 (124.9 MiB)
    • DT2
      • 00.Opening.mp4 (21.0 MiB)
      • 01.Romeo and Cinderella.mp4 (236.3 MiB)
      • 02.magnet.mp4 (225.1 MiB)
      • 03.Love Words.mp4 (220.5 MiB)
      • 04.Sound.mp4 (235.2 MiB)
      • 05.Heart.mp4 (253.8 MiB)
      • 06.Butterfly on the Right Shoulder.mp4 (219.7 MiB)
      • 07.Just Be Friends.mp4 (240.9 MiB)
      • 08.Clover Club.mp4 (226.5 MiB)
      • 09.FROM Y TO Y.mp4 (243.6 MiB)
      • 10.Yellow.mp4 (247.3 MiB)
      • 11.Change me.mp4 (250.3 MiB)
      • 12.PoPiPo.mp4 (219.0 MiB)
      • 13.Cantarella.mp4 (224.2 MiB)
      • 14.When the First Love Ends.mp4 (260.7 MiB)
      • 15.Gigantic Girl.mp4 (262.2 MiB)
      • 16.DEAR.mp4 (240.1 MiB)
      • 17.Gemini.mp4 (253.2 MiB)
      • 18.VOICE.mp4 (262.4 MiB)
      • 19.Innocence.mp4 (256.7 MiB)
      • 20.Meltdown.mp4 (241.3 MiB)
      • 21.I Understand the Truth.mp4 (257.4 MiB)
      • 22.Love-colored Ward.mp4 (231.8 MiB)
      • 23.Finder.mp4 (262.1 MiB)
      • 24.Promise.mp4 (213.0 MiB)
      • 25.First Tone.mp4 (218.8 MiB)
      • 26.The Farthest Ends.mp4 (202.8 MiB)
      • 27.Look this Way, Baby.mp4 (238.0 MiB)
      • 28.Colorful x Melody.mp4 (213.9 MiB)
      • 29.Double Lariat.mp4 (251.2 MiB)
      • 30.The Singing Passion of Hatsune Miku.mp4 (179.9 MiB)
    • DT2.5
      • 00.Opening.mp4 (24.3 MiB)
      • 01.Cat Ears Switch.mp4 (203.7 MiB)
      • 02.End of Solitude.mp4 (237.6 MiB)
      • 03.Palette.mp4 (235.0 MiB)
      • 04.SPiCa -39's Giving Day Edition.mp4 (275.5 MiB)
      • 05.Starduster.mp4 (185.6 MiB)
      • 06.To Beyond a Duodecillion.mp4 (182.3 MiB)
      • 07.Stardust Utopia.mp4 (214.6 MiB)
      • 08.Time Limit.mp4 (201.0 MiB)
      • 09.A Song Does Not Have The Form.mp4 (219.9 MiB)
      • 10.A Thousand Years Solo.mp4 (226.8 MiB)
      • 11.Butterfly On Your Right Shoulder -39's Giving Day Edition-.mp4 (214.8 MiB)
      • 12.Puzzle.mp4 (246.0 MiB)
      • 13.Lovers Suicide in Oblivion.mp4 (217.1 MiB)
      • 14.Rin Rin Signal -Append Mix-.mp4 (216.4 MiB)
      • 15.melody.mp4 (234.7 MiB)
      • 16.Pair of Wintry Winds.mp4 (233.0 MiB)
      • 17.Luka Luka Night Fever.mp4 (204.4 MiB)
      • 18.StargazeR.mp4 (234.5 MiB)
      • 19.ABC Song.mp4 (195.8 MiB)
      • 20.Hold, Release; Rakshasa and Carcasses.mp4 (215.1 MiB)
      • 21.Paradichlorobenzene.mp4 (198.1 MiB)
      • 22.Two-Faced Lovers.mp4 (222.6 MiB)
      • 23.Colorful x Sexy.mp4 (193.8 MiB)
      • 24.Rolling Girl.mp4 (222.7 MiB)
      • 25.Cumulonibus Cloud Graffiti.mp4 (246.1 MiB)