[TOPKEK] My Teenage Romantic Comedy SNAFU (Yahari Ore no Seishun LoveCome wa Machigatte Iru) - S01E03 [1080p] [x264 AAC] [Dual Audio]

Category:
Date:
2019-11-01 21:57 UTC
Submitter:
Seeders:
0
Information:
No information.
Leechers:
1
File size:
1.6 GiB
Completed:
49
Info hash:
1194d911f5e7a1d3667b513cc8514a00e6bc38fd
### This upload fixes the signal positioning issue Format : Matroska Format version : Version 4 File size : 1.62 GiB Duration : 24 min 12 s Overall bit rate mode : Variable Overall bit rate : 9 554 kb/s Encoded date : UTC 2019-11-01 21:41:19 Writing application : mkvmerge v38.0.0 ('The Silent Type') 64-bit Writing library : libebml v1.3.9 + libmatroska v1.5.2 Attachments : Blokletters-Balpen.ttf / COPILB.ttf / Diverda Sans Com Medium Italics.ttf / Diverda Sans Com Medium.ttf / FuckMyr v9001.ttf / gemelli.ttf / LeviReBrushed.ttf / Yryr minc R.ttf Video ID : 3 Format : AVC Format/Info : Advanced Video Codec Format profile : High 10@L5.1 Format settings : CABAC / 16 Ref Frames Format settings, CABAC : Yes Format settings, ReFrames : 16 frames Codec ID : V_MPEG4/ISO/AVC Duration : 24 min 10 s Bit rate : 7 942 kb/s Width : 1 920 pixels Height : 1 080 pixels Display aspect ratio : 16:9 Frame rate mode : Constant Frame rate : 23.976 (24000/1001) FPS Color space : YUV Chroma subsampling : 4:2:0 Bit depth : 10 bits Scan type : Progressive Bits/(Pixel*Frame) : 0.160 Stream size : 1.34 GiB (83%) Title : [TOPKEK] Writing library : x264 core 133 r2334 a3ac64b Encoding settings : cabac=1 / ref=16 / deblock=1:0:0 / analyse=0x3:0x133 / me=tesa / subme=11 / psy=1 / psy_rd=1.00:0.00 / mixed_ref=1 / me_range=24 / chroma_me=1 / trellis=2 / 8x8dct=1 / cqm=0 / deadzone=21,11 / fast_pskip=0 / chroma_qp_offset=-2 / threads=12 / lookahead_threads=3 / sliced_threads=0 / nr=0 / decimate=1 / interlaced=0 / bluray_compat=0 / constrained_intra=0 / bframes=16 / b_pyramid=2 / b_adapt=2 / b_bias=0 / direct=3 / weightb=1 / open_gop=0 / weightp=2 / keyint=250 / keyint_min=23 / scenecut=40 / intra_refresh=0 / rc_lookahead=60 / rc=crf / mbtree=1 / crf=13.0 / qcomp=0.60 / qpmin=0 / qpmax=81 / qpstep=4 / ip_ratio=1.40 / aq=1:1.00 Default : Yes Forced : No Audio #1 ID : 2 Format : AAC LC Format/Info : Advanced Audio Codec Low Complexity Codec ID : A_AAC-2 Duration : 24 min 11 s Bit rate : 159 kb/s Channel(s) : 2 channels Channel layout : L R Sampling rate : 48.0 kHz Frame rate : 46.875 FPS (1024 SPF) Compression mode : Lossy Delay relative to video : 9 ms Stream size : 27.6 MiB (2%) Title : English Language : English Default : Yes Forced : No Audio #2 ID : 4 Format : FLAC Format/Info : Free Lossless Audio Codec Codec ID : A_FLAC Duration : 24 min 10 s Bit rate mode : Variable Bit rate : 1 459 kb/s Channel(s) : 2 channels Channel layout : L R Sampling rate : 48.0 kHz Frame rate : 11.719 FPS (4096 SPF) Bit depth : 24 bits Compression mode : Lossless Stream size : 252 MiB (15%) Title : Japanese Writing library : libFLAC 1.2.1 (UTC 2007-09-17) Language : Japanese Default : No Forced : No Text ID : 1 Format : ASS Codec ID : S_TEXT/ASS Codec ID/Info : Advanced Sub Station Alpha Duration : 24 min 10 s Bit rate : 160 b/s Count of elements : 404 Compression mode : Lossless Stream size : 28.4 KiB (0%) Title : English Language : English Default : No Forced : No

File list

  • [TOPKEK] My Teenage Romantic Comedy SNAFU (Yahari Ore no Seishun LoveCome wa Machigatte Iru) - S01E03 [1080p] [x264 AAC] [Dual Audio].mkv (1.6 GiB)
Could you please seed all of your Snafu EPs for at least one day so that others could seed them?
Time won't matter. If one day of seeding but not all the pieces have beed distributed, nobody can leech to 100%. It need to be seeded until there's at least 1 completed the leeching.

kekmasters (uploader)

User
Our sincerest apologies but our VPN was acting up and for whatever reason some torrents were able to communicate with the tracker while others such as this release were not. We have switched VPN networks and it appears the issue has been resolved. We are seeding all torrents now properly and working on adding another seedbox.
I don't think the issue has been fully resolved yet, seeing as I am unable to fully seed to 100% for both EP3 and EP4. Also, I used 1 day as a reference because all of my torrents were succesfully leeched and seeded back within just 24 hours. Perhaps it's because my internet is really good.

kekmasters (uploader)

User
We investigated this further but we aren't seeing any issues on our end, the connection is stable albeit slow. We have peer connections and completions. It is strange that the tracker is reporting 2 seed sources and yet we are only seeing 1 seed source (us) on our end and the number of leechers is off as well. There is a possibility that the torrent itself is corrupt in some way (we did have issues with the website erroring out when uploading). We will be posting a batch release shortly to see if that can be resolved that way.
Is anyone else getting out of sync with ep 3 and 4?