[NSBC] Hidarikiki no Eren E01 [HDTV] [1080p]

Category:
Date:
2019-10-23 00:12 UTC
Submitter:
Seeders:
4
Information:
TlNCQy50bw==
Leechers:
0
File size:
587.3 MiB
Completed:
504
Info hash:
96f8d49464fd66e720ab16fcbe71f042d670c2aa
![](https://www.mbs.jp/eren_drama/images/head.jpg "") ![](http://img.topddl.net/images/281075f1300432a09e42cc5de0dabcfc.jpg "") ``` General Unique ID : 177927725519581608320747151985803488153 (0x85DBA229E06E7D3542E1FFBDB90B6B99) Complete name : [NSBC] Hidarikiki no Eren E01 [HDTV] [1080p].mkv Format : Matroska Format version : Version 4 File size : 587 MiB Duration : 23 min 59 s Overall bit rate : 3 423 kb/s Movie name : [NSBC] Hidarikiki no Eren E01 [HDTV] [1080p] Encoded by : MoMo | NSBC Encoded date : UTC 2019-10-23 00:05:31 Writing application : mkvmerge v38.0.0 ('The Silent Type') 64-bit Writing library : libebml v1.3.9 + libmatroska v1.5.2 Copyright : NSBC Comment : MoMo | NSBC DATE_RECORDED : 2019 Video ID : 1 Format : AVC Format/Info : Advanced Video Codec Format profile : High@L4 Format settings : CABAC / 4 Ref Frames Format settings, CABAC : Yes Format settings, Reference frames : 4 frames Codec ID : V_MPEG4/ISO/AVC Duration : 23 min 59 s Bit rate : 3 292 kb/s Width : 1 920 pixels Height : 1 080 pixels Display aspect ratio : 16:9 Frame rate mode : Constant Frame rate : 29.970 (29970/1000) FPS Color space : YUV Chroma subsampling : 4:2:0 Bit depth : 8 bits Scan type : Progressive Bits/(Pixel*Frame) : 0.053 Stream size : 565 MiB (96%) Title : [NSBC] Default : Yes Forced : No Audio ID : 2 Format : AAC LC Format/Info : Advanced Audio Codec Low Complexity Codec ID : A_AAC-2 Duration : 23 min 59 s Bit rate : 128 kb/s Channel(s) : 2 channels Channel layout : L R Sampling rate : 48.0 kHz Frame rate : 46.875 FPS (1024 SPF) Compression mode : Lossy Delay relative to video : 8 ms Stream size : 22.0 MiB (4%) Title : [NSBC] Language : Japanese Default : Yes Forced : No ```

File list

  • [NSBC] Hidarikiki no Eren E01 [HDTV] [1080p].mkv (587.3 MiB)