[KEKMASTERS] To the Abandoned Sacred Beasts (Katsute Kami Datta Kemono-tachi e) - S01E02 - X264 - AAC - DUAL AUDIO

Category:
Date:
2019-10-20 17:06 UTC
Submitter:
Seeders:
3
Information:
No information.
Leechers:
0
File size:
792.6 MiB
Completed:
54
Info hash:
9469f3b3890c2ca1d0ae99bf7b4ebe54b79de374
Format : Matroska Format version : Version 4 File size : 793 MiB Duration : 23 min 42 s Overall bit rate : 4 674 kb/s Encoded date : UTC 2019-10-20 15:31:07 Writing application : mkvmerge v37.0.0 ('Leave It') 64-bit Writing library : libebml v1.3.9 + libmatroska v1.5.2 Attachments : OpenSans-Semibold.ttf Video ID : 1 Format : AVC Format/Info : Advanced Video Codec Format profile : High@L4 Format settings : CABAC / 4 Ref Frames Format settings, CABAC : Yes Format settings, ReFrames : 4 frames Codec ID : V_MPEG4/ISO/AVC Duration : 23 min 40 s Bit rate : 4 422 kb/s Width : 1 920 pixels Height : 1 080 pixels Display aspect ratio : 16:9 Frame rate mode : Constant Frame rate : 23.976 (24000/1001) FPS Color space : YUV Chroma subsampling : 4:2:0 Bit depth : 8 bits Scan type : Progressive Bits/(Pixel*Frame) : 0.089 Stream size : 749 MiB (94%) Title : [KEKMASTERS] Writing library : x264 core 142 Encoding settings : cabac=1 / ref=4 / deblock=1:1:1 / analyse=0x3:0x113 / me=umh / subme=8 / psy=1 / psy_rd=0.40:0.00 / mixed_ref=1 / me_range=16 / chroma_me=1 / trellis=1 / 8x8dct=1 / cqm=0 / deadzone=21,11 / fast_pskip=1 / chroma_qp_offset=-2 / threads=12 / lookahead_threads=2 / sliced_threads=0 / nr=0 / decimate=1 / interlaced=0 / bluray_compat=0 / constrained_intra=0 / bframes=3 / b_pyramid=2 / b_adapt=2 / b_bias=0 / direct=3 / weightb=1 / open_gop=0 / weightp=2 / keyint=96 / keyint_min=48 / scenecut=40 / intra_refresh=0 / rc_lookahead=48 / rc=crf / mbtree=1 / crf=15.0 / qcomp=0.60 / qpmin=0 / qpmax=69 / qpstep=4 / vbv_maxrate=8000 / vbv_bufsize=12000 / crf_max=0.0 / nal_hrd=none / filler=0 / ip_ratio=1.40 / aq=1:0.60 Default : Yes Forced : No Audio #1 ID : 2 Format : AAC LC Format/Info : Advanced Audio Codec Low Complexity Codec ID : A_AAC-2 Duration : 23 min 40 s Bit rate : 128 kb/s Channel(s) : 2 channels Channel layout : L R Sampling rate : 44.1 kHz Frame rate : 43.066 FPS (1024 SPF) Compression mode : Lossy Delay relative to video : -83 ms Stream size : 21.7 MiB (3%) Title : Japanese Language : Japanese Default : No Forced : No Audio #2 ID : 4 Format : AAC LC Format/Info : Advanced Audio Codec Low Complexity Codec ID : A_AAC-2 Duration : 23 min 40 s Bit rate : 128 kb/s Channel(s) : 2 channels Channel layout : L R Sampling rate : 44.1 kHz Frame rate : 43.066 FPS (1024 SPF) Compression mode : Lossy Delay relative to video : -78 ms Stream size : 21.7 MiB (3%) Title : English Language : English Default : Yes Forced : No Text ID : 3 Format : ASS Codec ID : S_TEXT/ASS Codec ID/Info : Advanced Sub Station Alpha Duration : 23 min 33 s Bit rate : 147 b/s Count of elements : 295 Compression mode : Lossless Stream size : 25.5 KiB (0%) Title : English Language : English Default : No Forced : No

File list

  • [KEKMASTERS] To the Abandoned Sacred Beasts - S01E02 (Katsute Kami Datta Kemono-tachi e) - 1080p - x264 - AAC.mkv (792.6 MiB)
Thanks for this, thanks for the dual audio (completed file), And thanks for NOT using non standard codecs. The difference is the awareness of common sense in self. Anyone using something that will never be accepted in the media world shows a lack of. Even when clear signs of common sense is being used, and the their obvious flaws, restrictions, and limitations are exposed, those codecs continue to be used . Their popularity the first handful of years was fabricated through the use of A.I. It swiftly turned the entire new generation of Anime fans that preceded it into fanatic followers even though the truth was right in front of them. They continue to ignore it. Since 2010 less than 10 times has it been noted where someone has correctly used a non standard codec correctly and it resulted in it's original intended purpose. The rest would have been better off increasing the frame rate to 60FPS which would given them the same outcome.
And... on this weeks episode of dumbest nyaa comments: random guy says 8-bit 60fps is same outcome as 10-bit 24fps.