[KEKMASTERS] To the Abandoned Sacred Beasts (Katsute Kami Datta Kemono-tachi e) - S01E01 - X264 - AAC - DUAL AUDIO

Category:
Date:
2019-10-20 17:05 UTC
Submitter:
Seeders:
4
Information:
No information.
Leechers:
0
File size:
1.4 GiB
Completed:
47
Info hash:
475f68a7d810f5c50c02ec4ba0f9c736ad98fb5c
Anime English Name: To the Abandoned Sacred Beasts Anime Japanese Name: Katsute Kami Datta Kemono-tachi e Resolution: 1080p Audio: Dual (ENG/JAP) Format : Matroska Format version : Version 4 File size : 1.36 GiB Duration : 23 min 40 s Overall bit rate : 8 254 kb/s Encoded date : UTC 2019-10-20 15:27:52 Writing application : mkvmerge v37.0.0 ('Leave It') 64-bit Writing library : libebml v1.3.9 + libmatroska v1.5.2 Attachments : OpenSans-Semibold.ttf Video ID : 1 Format : AVC Format/Info : Advanced Video Codec Format profile : High@L4 Format settings : CABAC / 4 Ref Frames Format settings, CABAC : Yes Format settings, ReFrames : 4 frames Codec ID : V_MPEG4/ISO/AVC Duration : 23 min 40 s Bit rate : 8 000 kb/s Width : 1 920 pixels Height : 1 080 pixels Display aspect ratio : 16:9 Frame rate mode : Constant Frame rate : 23.976 (24000/1001) FPS Color space : YUV Chroma subsampling : 4:2:0 Bit depth : 8 bits Scan type : Progressive Bits/(Pixel*Frame) : 0.161 Stream size : 1.32 GiB (97%) Title : [KEKMASTERS] Writing library : x264 core 142 Encoding settings : cabac=1 / ref=4 / deblock=1:1:1 / analyse=0x3:0x113 / me=umh / subme=8 / psy=1 / psy_rd=0.40:0.00 / mixed_ref=1 / me_range=16 / chroma_me=1 / trellis=1 / 8x8dct=1 / cqm=0 / deadzone=21,11 / fast_pskip=1 / chroma_qp_offset=-2 / threads=12 / lookahead_threads=2 / sliced_threads=0 / nr=0 / decimate=1 / interlaced=0 / bluray_compat=0 / constrained_intra=0 / bframes=0 / weightp=2 / keyint=96 / keyint_min=48 / scenecut=40 / intra_refresh=0 / rc_lookahead=48 / rc=2pass / mbtree=1 / bitrate=8000 / ratetol=1.0 / qcomp=0.60 / qpmin=0 / qpmax=69 / qpstep=4 / cplxblur=20.0 / qblur=0.5 / vbv_maxrate=12000 / vbv_bufsize=18000 / nal_hrd=none / filler=0 / ip_ratio=1.40 / aq=1:0.60 Default : Yes Forced : No Audio #1 ID : 2 Format : AAC LC Format/Info : Advanced Audio Codec Low Complexity Codec ID : A_AAC-2 Duration : 23 min 40 s Bit rate : 128 kb/s Channel(s) : 2 channels Channel layout : L R Sampling rate : 44.1 kHz Frame rate : 43.066 FPS (1024 SPF) Compression mode : Lossy Delay relative to video : 5 ms Stream size : 21.7 MiB (2%) Title : English Language : English Default : Yes Forced : No Audio #2 ID : 3 Format : AAC LC Format/Info : Advanced Audio Codec Low Complexity Codec ID : A_AAC-2 Duration : 23 min 40 s Bit rate : 128 kb/s Channel(s) : 2 channels Channel layout : L R Sampling rate : 44.1 kHz Frame rate : 43.066 FPS (1024 SPF) Compression mode : Lossy Stream size : 21.7 MiB (2%) Title : Japanese Language : Japanese Default : No Forced : No Text ID : 4 Format : ASS Codec ID : S_TEXT/ASS Codec ID/Info : Advanced Sub Station Alpha Duration : 23 min 38 s Bit rate : 152 b/s Count of elements : 285 Compression mode : Lossless Stream size : 26.4 KiB (0%) Title : English Language : English Default : No Forced : No

File list

  • [KEKMASTERS] To the Abandoned Sacred Beasts - S01E01 (Katsute Kami Datta Kemono-tachi e) - 1080p - x264 - AAC.mkv (1.4 GiB)