[NSBC] Shinmai Shimai no Futari Gohan E01 [WEBDL] [720p]

Category:
Date:
2019-10-10 17:11 UTC
Submitter:
Seeders:
6
Information:
TlNCQy50bw==
Leechers:
6
File size:
549.6 MiB
Completed:
370
Info hash:
4575e74b05d468e3b2fc9719f5890976e5f00c63
![](http://img.topddl.net/images/9e97c58dc35fcc2b4601e514cbdb8627.jpg "") ![](http://img.topddl.net/images/2319a0377268bf7cec348f73e01b80b2.jpg "") ``` General Unique ID : 298647218388532448376190558697172341345 (0xE0AD5CB0A2AC19E9ADAC84C644B19261) Complete name : [NSBC] Shinmai Shimai no Futari Gohan E01 [WEBDL] [720p].mkv Format : Matroska Format version : Version 4 File size : 550 MiB Duration : 24 min 32 s Overall bit rate mode : Variable Overall bit rate : 3 132 kb/s Movie name : [NSBC] Shinmai Shimai no Futari Gohan E01 [WEBDL] [720p] Encoded by : NoNe | NSBC Encoded date : UTC 2019-10-10 17:07:27 Writing application : mkvmerge v37.0.0 ('Leave It') 64-bit Writing library : libebml v1.3.9 + libmatroska v1.5.2 Copyright : NSBC Comment : NoNe | NSBC DATE_RECORDED : 2019 Video ID : 1 Format : AVC Format/Info : Advanced Video Codec Format profile : Main@L3.1 Format settings : CABAC / 3 Ref Frames Format settings, CABAC : Yes Format settings, Reference frames : 3 frames Format settings, GOP : M=1, N=30 Codec ID : V_MPEG4/ISO/AVC Duration : 24 min 32 s Bit rate mode : Variable Bit rate : 3 001 kb/s Maximum bit rate : 40.0 Mb/s Width : 1 280 pixels Height : 720 pixels Display aspect ratio : 16:9 Frame rate mode : Constant Frame rate : 29.970 (29970/1000) FPS Original frame rate : 29.970 (30000/1001) FPS Color space : YUV Chroma subsampling : 4:2:0 Bit depth : 8 bits Scan type : Progressive Bits/(Pixel*Frame) : 0.109 Stream size : 527 MiB (96%) Title : [NSBC] Default : Yes Forced : No Audio ID : 2 Format : AAC LC Format/Info : Advanced Audio Codec Low Complexity Codec ID : A_AAC-2 Duration : 24 min 32 s Bit rate : 128 kb/s Channel(s) : 2 channels Channel layout : L R Sampling rate : 48.0 kHz Frame rate : 46.875 FPS (1024 SPF) Compression mode : Lossy Stream size : 22.4 MiB (4%) Title : [NSBC] Language : Japanese Default : Yes Forced : No ```

File list

  • [NSBC] Shinmai Shimai no Futari Gohan E01 [WEBDL] [720p].mkv (549.6 MiB)

NOSoba (uploader)

User
> ### Encode version will available on my [blog](https://nosobacrew.wordpress.com/2019/09/11/x265-hevc/)