[NSBC] HiGH&LOW THE BEST BOUT E02 [HDTV] [720p]

Category:
Date:
2019-10-09 23:48 UTC
Submitter:
Seeders:
7
Information:
TlNCQy50bw==
Leechers:
1
File size:
629.0 MiB
Completed:
213
Info hash:
28a36ca12a517ef7f5f90f5a70596ceb290f1b53
![](https://high-low.jp/assets/img/common2/thumb/bestbout_191001.jpg "") ![](http://img.topddl.net/images/9255a02f30eebcbbc51c1fb1b7b60c41.jpg "") ``` General Unique ID : 260214751834771643836598534272693051783 (0xC3C389CAF2A47D8B143D155237342187) Complete name : [NSBC] HiGH&LOW THE BEST BOUT E02 [HDTV] [720p].mkv Format : Matroska Format version : Version 4 File size : 629 MiB Duration : 21 min 29 s Overall bit rate : 4 090 kb/s Movie name : [NSBC] HiGH&LOW THE BEST BOUT E02 [HDTV] [720p] Encoded by : MoMo | NSBC Encoded date : UTC 2019-10-09 23:42:34 Writing application : mkvmerge v37.0.0 ('Leave It') 64-bit Writing library : libebml v1.3.9 + libmatroska v1.5.2 Copyright : NSBC Comment : MoMo | NSBC DATE_RECORDED : 2019 Video ID : 1 Format : AVC Format/Info : Advanced Video Codec Format profile : High@L3.2 Format settings : 4 Ref Frames Format settings, CABAC : No Format settings, Reference frames : 4 frames Codec ID : V_MPEG4/ISO/AVC Duration : 21 min 29 s Bit rate : 4 000 kb/s Width : 1 280 pixels Height : 720 pixels Display aspect ratio : 16:9 Frame rate mode : Constant Frame rate : 30.000 FPS Original frame rate : 30.303 FPS Color space : YUV Chroma subsampling : 4:2:0 Bit depth : 8 bits Scan type : Progressive Bits/(Pixel*Frame) : 0.145 Stream size : 609 MiB (97%) Title : [NSBC] Writing library : x264 core 146 r2538 121396c Encoding settings : cabac=0 / ref=3 / deblock=0:-1:-1 / analyse=0x3:0x113 / me=hex / subme=7 / psy=1 / psy_rd=1.00:0.15 / mixed_ref=1 / me_range=16 / chroma_me=1 / trellis=1 / 8x8dct=1 / cqm=0 / deadzone=21,11 / fast_pskip=1 / chroma_qp_offset=-3 / threads=3 / lookahead_threads=1 / sliced_threads=0 / nr=0 / decimate=1 / interlaced=0 / bluray_compat=0 / constrained_intra=0 / bframes=3 / b_pyramid=2 / b_adapt=1 / b_bias=0 / direct=1 / weightb=0 / open_gop=0 / weightp=0 / keyint=250 / keyint_min=25 / scenecut=40 / intra_refresh=0 / rc_lookahead=40 / rc=2pass / mbtree=1 / bitrate=4000 / ratetol=1.0 / qcomp=0.60 / qpmin=0 / qpmax=69 / qpstep=4 / cplxblur=20.0 / qblur=0.5 / ip_ratio=1.40 / aq=1:1.00 Default : Yes Forced : No Audio ID : 2 Format : AAC LC Format/Info : Advanced Audio Codec Low Complexity Codec ID : A_AAC-2 Duration : 21 min 29 s Bit rate : 128 kb/s Channel(s) : 1 channel Channel layout : C Sampling rate : 48.0 kHz Frame rate : 46.875 FPS (1024 SPF) Compression mode : Lossy Delay relative to video : 1 ms Stream size : 19.7 MiB (3%) Title : [NSBC] Language : Japanese Default : Yes Forced : No ```

File list

  • [NSBC] HiGH&LOW THE BEST BOUT E02 [HDTV] [720p].mkv (629.0 MiB)