[NSBC] Million Joe E01 [WEBDL] [720p]

Category:
Date:
2019-10-09 22:01 UTC
Submitter:
Seeders:
8
Information:
TlNCQy50bw==
Leechers:
1
File size:
571.8 MiB
Completed:
276
Info hash:
e050f75b976aedbff5a1ed04c2e5f74fa5946ad9
![](http://img.topddl.net/images/7ba4fa6cf9b7b1fc8e779df13d182def.jpg "") ![](http://img.topddl.net/images/0a9ced551c299ff9bc51e1883cf820f6.jpg "") ``` General Unique ID : 275543114774934100028439311807576847906 (0xCF4BAC6F2E2B32FF8EC5EA8987B0B622) Complete name : [NSBC] Million Joe E01 [WEBDL] [720p].mkv Format : Matroska Format version : Version 4 File size : 572 MiB Duration : 25 min 34 s Overall bit rate : 3 127 kb/s Movie name : [NSBC] Million Joe E01 [WEBDL] [720p] Encoded by : NoNe | NSBC Encoded date : UTC 2019-10-09 21:51:58 Writing application : mkvmerge v37.0.0 ('Leave It') 64-bit Writing library : libebml v1.3.9 + libmatroska v1.5.2 Copyright : NSBC Comment : NoNe | NSBC DATE_RECORDED : 2019 Video ID : 1 Format : AVC Format/Info : Advanced Video Codec Format profile : Main@L3.1 Format settings : CABAC / 3 Ref Frames Format settings, CABAC : Yes Format settings, Reference frames : 3 frames Format settings, GOP : M=1, N=30 Codec ID : V_MPEG4/ISO/AVC Duration : 25 min 34 s Bit rate : 2 996 kb/s Width : 1 280 pixels Height : 720 pixels Display aspect ratio : 16:9 Frame rate mode : Constant Frame rate : 29.970 (30000/1001) FPS Color space : YUV Chroma subsampling : 4:2:0 Bit depth : 8 bits Scan type : Progressive Bits/(Pixel*Frame) : 0.108 Stream size : 548 MiB (96%) Title : [NSBC] Default : Yes Forced : No Color range : Limited Matrix coefficients : BT.709 Audio ID : 2 Format : AAC LC Format/Info : Advanced Audio Codec Low Complexity Codec ID : A_AAC-2 Duration : 25 min 34 s Bit rate : 128 kb/s Channel(s) : 2 channels Channel layout : L R Sampling rate : 48.0 kHz Frame rate : 46.875 FPS (1024 SPF) Compression mode : Lossy Stream size : 23.4 MiB (4%) Title : [NSBC] Language : Japanese Default : Yes Forced : No ```

File list

  • [NSBC] Million Joe E01 [WEBDL] [720p].mkv (571.8 MiB)

NOSoba (uploader)

User
> ### Encode version will available on my [blog](https://nosobacrew.wordpress.com/2019/09/11/x265-hevc/)