[NSBC] Douki no Sakura E01 [WEBDL] [1080p]

Category:
Date:
2019-10-09 14:28 UTC
Submitter:
Seeders:
3
Information:
TlNCQy50bw==
Leechers:
0
File size:
1022.4 MiB
Completed:
728
Info hash:
f4ed8548d068dfd48e9897d5ed7f421ab54a3755
> HDTV Tomorrow > ### Encode version will available on my [blog](https://nosobacrew.wordpress.com/2019/09/11/x265-hevc/) ![](http://img.topddl.net/images/68dfaeca2d8e31d7c5c4c90dd1dbcb18.jpg "") ![](http://img.topddl.net/images/f1796f645ac9db019950d86179cdfe0e.jpg "") ``` General Unique ID : 31164996862195769952604106183260356708 (0x177228FA2CBC484BB666C1A78959C064) Complete name : [NSBC] Douki no Sakura E01 [WEBDL] [1080p].mkv Format : Matroska Format version : Version 4 File size : 1 022 MiB Duration : 51 min 14 s Overall bit rate : 2 790 kb/s Movie name : [NSBC] Douki no Sakura E01 [WEBDL] [1080p] Encoded by : NoNe | NSBC Encoded date : UTC 2019-10-09 14:23:43 Writing application : mkvmerge v37.0.0 ('Leave It') 64-bit Writing library : libebml v1.3.9 + libmatroska v1.5.2 Copyright : NSBC Comment : NoNe | NSBC DATE_RECORDED : 2019 Video ID : 1 Format : AVC Format/Info : Advanced Video Codec Format profile : High@L4 Format settings : CABAC / 4 Ref Frames Format settings, CABAC : Yes Format settings, Reference frames : 4 frames Codec ID : V_MPEG4/ISO/AVC Duration : 51 min 13 s Bit rate : 2 724 kb/s Width : 1 920 pixels Height : 1 080 pixels Display aspect ratio : 16:9 Frame rate mode : Constant Frame rate : 29.970 (30000/1001) FPS Color space : YUV Chroma subsampling : 4:2:0 Bit depth : 8 bits Scan type : Progressive Bits/(Pixel*Frame) : 0.044 Stream size : 998 MiB (98%) Title : [NSBC] Writing library : Zencoder Video Encoding System Default : Yes Forced : No Audio ID : 2 Format : AAC LC Format/Info : Advanced Audio Codec Low Complexity Codec ID : A_AAC-2 Duration : 51 min 14 s Bit rate : 64.0 kb/s Channel(s) : 2 channels Channel layout : L R Sampling rate : 48.0 kHz Frame rate : 46.875 FPS (1024 SPF) Compression mode : Lossy Delay relative to video : -67 ms Stream size : 23.5 MiB (2%) Title : [NSBC] Language : Japanese Default : Yes Forced : No ```

File list

  • [NSBC] Douki no Sakura E01 [WEBDL] [1080p].mkv (1022.4 MiB)

NOSoba (uploader)

User
> ### Encode version will available on my [blog](https://nosobacrew.wordpress.com/2019/09/11/x265-hevc/)