[NSBC] Aibou Season 18 E01 [WEBDL] [1080p]

Category:
Date:
2019-10-09 14:01 UTC
Submitter:
Seeders:
2
Information:
TlNCQy50bw==
Leechers:
0
File size:
1.3 GiB
Completed:
730
Info hash:
eb1f6a5d47f5e6dccb9e120ff3f38dca756588f4
> ### Encode version will available on my [blog](https://nosobacrew.wordpress.com/2019/09/11/x265-hevc/) ![](http://img.topddl.net/images/5b7b6ab32867b46304df2508400b529a.jpg "") ![](http://img.topddl.net/images/1a9c9f249346fb63ea2f0fe1c7366d55.jpg "") ``` General Unique ID : 234136114416296800148347871330512609825 (0xB024F9B29D2A292F64D39751EC8F2221) Complete name : [NSBC] Aibou Season 18 E01 [WEBDL] [1080p].mkv Format : Matroska Format version : Version 4 File size : 1.31 GiB Duration : 1 h 10 min Overall bit rate : 2 651 kb/s Movie name : [NSBC] Aibou Season 18 E01 [WEBDL] [1080p] Encoded by : NoNe | NSBC Encoded date : UTC 2019-10-09 13:56:41 Writing application : mkvmerge v37.0.0 ('Leave It') 64-bit Writing library : libebml v1.3.9 + libmatroska v1.5.2 Copyright : NSBC Comment : NoNe | NSBC DATE_RECORDED : 2019 Video ID : 1 Format : AVC Format/Info : Advanced Video Codec Format profile : High@L4 Format settings : CABAC / 4 Ref Frames Format settings, CABAC : Yes Format settings, Reference frames : 4 frames Codec ID : V_MPEG4/ISO/AVC Duration : 1 h 10 min Bit rate : 2 585 kb/s Width : 1 920 pixels Height : 1 080 pixels Display aspect ratio : 16:9 Frame rate mode : Constant Frame rate : 29.970 (30000/1001) FPS Color space : YUV Chroma subsampling : 4:2:0 Bit depth : 8 bits Scan type : Progressive Bits/(Pixel*Frame) : 0.042 Stream size : 1.28 GiB (97%) Title : [NSBC] Writing library : Zencoder Video Encoding System Default : Yes Forced : No Color range : Limited Matrix coefficients : BT.709 Audio ID : 2 Format : AAC LC Format/Info : Advanced Audio Codec Low Complexity Codec ID : A_AAC-2 Duration : 1 h 10 min Bit rate : 63.9 kb/s Channel(s) : 2 channels Channel layout : L R Sampling rate : 48.0 kHz Frame rate : 46.875 FPS (1024 SPF) Compression mode : Lossy Delay relative to video : -67 ms Stream size : 32.4 MiB (2%) Title : [NSBC] Language : Japanese Default : Yes Forced : No ```

File list

  • [NSBC] Aibou Season 18 E01 [WEBDL] [1080p].mkv (1.3 GiB)

NOSoba (uploader)

User
> ### Encode version will available on my [blog](https://nosobacrew.wordpress.com/2019/09/11/x265-hevc/)