[NSBC] Aku no Hadou E01 [HDTV] [720p]

Category:
Date:
2019-10-09 02:35 UTC
Submitter:
Seeders:
14
Information:
TlNCQy50bw==
Leechers:
2
File size:
730.7 MiB
Completed:
479
Info hash:
9482b4d227be22e42db211e2cec1832d7a5389c7
> This a Revision, the previous one got some audio issue. ![](http://img.topddl.net/images/7d99f03bb418577e88c5e1062baa9e3f.jpg "") ![](http://img.topddl.net/images/8d93de0b88b0447fcd0ee0df60e4e602.jpg "") ``` General Unique ID : 80997625725371133984283171036404351578 (0x3CEF93459B855DFE47C3D59C580F825A) Complete name : [NSBC] Aku no Hadou E01 [HDTV] [720p].mkv Format : Matroska Format version : Version 4 File size : 731 MiB Duration : 24 min 59 s Overall bit rate : 4 087 kb/s Movie name : [NSBC] Aku no Hadou E01 [HDTV] [720p] Encoded by : NoNe | NSBC Encoded date : UTC 2019-10-09 02:27:09 Writing application : mkvmerge v37.0.0 ('Leave It') 64-bit Writing library : libebml v1.3.9 + libmatroska v1.5.2 Copyright : NSBC Comment : NoNe | NSBC DATE_RECORDED : 2019 Video ID : 1 Format : AVC Format/Info : Advanced Video Codec Format profile : High@L3.2 Format settings : 4 Ref Frames Format settings, CABAC : No Format settings, Reference frames : 4 frames Codec ID : V_MPEG4/ISO/AVC Duration : 24 min 59 s Bit rate : 3 959 kb/s Width : 1 280 pixels Height : 720 pixels Display aspect ratio : 16:9 Frame rate mode : Constant Frame rate : 30.000 FPS Original frame rate : 30.303 FPS Color space : YUV Chroma subsampling : 4:2:0 Bit depth : 8 bits Scan type : Progressive Bits/(Pixel*Frame) : 0.143 Stream size : 708 MiB (97%) Title : [NSBC] Default : Yes Forced : No Audio ID : 2 Format : AAC LC Format/Info : Advanced Audio Codec Low Complexity Codec ID : A_AAC-2 Duration : 24 min 59 s Bit rate : 125 kb/s Channel(s) : 2 channels Channel layout : L R Sampling rate : 48.0 kHz Frame rate : 46.875 FPS (1024 SPF) Compression mode : Lossy Stream size : 22.4 MiB (3%) Title : [NSBC] Language : Japanese Default : Yes Forced : No ```

File list

  • [NSBC] Aku no Hadou E01 [HDTV] [720p].mkv (730.7 MiB)