[NSBC] Sadou E12 END [WEBDL] [720p]

Category:
Date:
2019-10-08 22:35 UTC
Submitter:
Seeders:
4
Information:
TlNCQy50bw==
Leechers:
4
File size:
537.8 MiB
Completed:
218
Info hash:
0fbf142b2569c73a33ea2029c6d385607a8661cb
> forgot about this lol ![POSTER](http://img.topddl.net/images/f16f3ca93b8296a2be0a4c2d77b2f224.jpg "") ![Thumbnails](http://img.topddl.net/images/ecd68ba10bef6162bcbe357cdad73c4a.jpg "") ``` General Unique ID : 154898051272232896889217934381962612212 (0x7488478F18EBE538723D53050F7DCDF4) Complete name : [NSBC] Sadou E12 END [WEBDL] [720p].mkv Format : Matroska Format version : Version 4 File size : 538 MiB Duration : 24 min 4 s Overall bit rate : 3 124 kb/s Movie name : [NSBC] Sadou E12 END [WEBDL] [720p] Encoded by : NoNe | NSBC Encoded date : UTC 2019-10-08 22:30:30 Writing application : mkvmerge v37.0.0 ('Leave It') 64-bit Writing library : libebml v1.3.9 + libmatroska v1.5.2 Copyright : NSBC Comment : NoNe | NSBC DATE_RECORDED : 2019 Video ID : 1 Format : AVC Format/Info : Advanced Video Codec Format profile : Main@L3.1 Format settings : CABAC / 3 Ref Frames Format settings, CABAC : Yes Format settings, Reference frames : 3 frames Format settings, GOP : M=1, N=30 Codec ID : V_MPEG4/ISO/AVC Duration : 24 min 4 s Bit rate : 2 994 kb/s Width : 1 280 pixels Height : 720 pixels Display aspect ratio : 16:9 Frame rate mode : Constant Frame rate : 29.970 (30000/1001) FPS Color space : YUV Chroma subsampling : 4:2:0 Bit depth : 8 bits Scan type : Progressive Bits/(Pixel*Frame) : 0.108 Stream size : 515 MiB (96%) Title : [NSBC] Default : Yes Forced : No Audio ID : 2 Format : AAC LC Format/Info : Advanced Audio Codec Low Complexity Codec ID : A_AAC-2 Duration : 24 min 4 s Bit rate : 128 kb/s Channel(s) : 2 channels Channel layout : L R Sampling rate : 48.0 kHz Frame rate : 46.875 FPS (1024 SPF) Compression mode : Lossy Stream size : 22.0 MiB (4%) Title : [NSBC] Language : Japanese Default : Yes Forced : No ```

File list

  • [NSBC] Sadou E12 END [WEBDL] [720p].mkv (537.8 MiB)