[NSBC] Mada Kekkon Dekinai Otoko 2019 E01 [WEBDL] [1080p]

Category:
Date:
2019-10-08 13:34 UTC
Submitter:
Seeders:
4
Information:
TlNCQy50bw==
Leechers:
2
File size:
718.5 MiB
Completed:
902
Info hash:
a8c0512c8b1c17516e0fc44fdef1770c6facc3f6
> HDTV Tomorrow > ### Encode version will available on my [blog](https://nosobacrew.wordpress.com/2019/09/11/x265-hevc/) ![](http://img.topddl.net/images/065b600d400f9a2224d2f5101473da6e.jpg "") ![](http://img.topddl.net/images/042c433f330632a628f61c28e4cc7da2.jpg "") ``` General Unique ID : 155139314713279153607156001945225602509 (0x74B6BEC3D763307644CC593A642D25CD) Complete name : [NSBC] Mada Kekkon Dekinai Otoko 2019 E01 [WEBDL] [1080p].mkv Format : Matroska Format version : Version 4 File size : 719 MiB Duration : 56 min 50 s Overall bit rate : 1 768 kb/s Movie name : [NSBC] Mada Kekkon Dekinai Otoko 2019 E01 [WEBDL] [1080p] Encoded by : NoNe | NSBC Encoded date : UTC 2019-10-08 13:31:11 Writing application : mkvmerge v37.0.0 ('Leave It') 64-bit Writing library : libebml v1.3.9 + libmatroska v1.5.2 Copyright : NSBC Comment : NoNe | NSBC DATE_RECORDED : 2019 Video ID : 1 Format : AVC Format/Info : Advanced Video Codec Format profile : High@L4 Format settings : CABAC / 4 Ref Frames Format settings, CABAC : Yes Format settings, Reference frames : 4 frames Codec ID : V_MPEG4/ISO/AVC Duration : 56 min 50 s Bit rate : 1 637 kb/s Width : 1 920 pixels Height : 1 080 pixels Display aspect ratio : 16:9 Frame rate mode : Constant Frame rate : 29.970 (30000/1001) FPS Color space : YUV Chroma subsampling : 4:2:0 Bit depth : 8 bits Scan type : Progressive Bits/(Pixel*Frame) : 0.026 Stream size : 665 MiB (93%) Title : [NSBC] Writing library : Zencoder Video Encoding System Default : Yes Forced : No Color range : Limited Color primaries : BT.709 Transfer characteristics : BT.709 Matrix coefficients : BT.709 Audio ID : 2 Format : AAC LC Format/Info : Advanced Audio Codec Low Complexity Codec ID : A_AAC-2 Duration : 56 min 50 s Bit rate : 128 kb/s Channel(s) : 2 channels Channel layout : L R Sampling rate : 48.0 kHz Frame rate : 46.875 FPS (1024 SPF) Compression mode : Lossy Delay relative to video : -67 ms Stream size : 52.0 MiB (7%) Title : [NSBC] Language : Japanese Default : Yes Forced : No ```

File list

  • [NSBC] Mada Kekkon Dekinai Otoko 2019 E01 [WEBDL] [1080p].mkv (718.5 MiB)

NOSoba (uploader)

User
> ### Encode version will available on my [blog](https://nosobacrew.wordpress.com/2019/09/11/x265-hevc/)