[NSBC] Sherlock E01 [HDTV] [720p]

Category:
Date:
2019-10-07 22:17 UTC
Submitter:
Seeders:
11
Information:
TlNCQy50bw==
Leechers:
4
File size:
2.0 GiB
Completed:
530
Info hash:
ba784ee0f328ead3a457c31633d344556e1d3274
> There is some glitch screen around 43:03 because cutting the ads out, but its acceptable. If you want v2 i can upload in here just comment :) > ### V2 are available on my personal [blog](https://nosobacrew.wordpress.com/2019/09/11/v2/) ;) ![](https://www.fujitv.co.jp/sherlock/img/ogp.png "") ![](http://img.topddl.net/images/b3a0eea88456a858d30e467e7f871a6f.jpg "") ``` General Unique ID : 268523229673140886330813836970601728457 (0xCA03B160867204031BF7C99B2A73C9C9) Complete name : [NSBC] Sherlock E01 [HDTV] [720p].mkv Format : Matroska Format version : Version 4 File size : 2.02 GiB Duration : 1 h 10 min Overall bit rate : 4 136 kb/s Movie name : [NSBC] Sherlock E01 [HDTV] [720p] Encoded by : NoNe | NSBC Encoded date : UTC 2019-10-07 22:10:06 Writing application : mkvmerge v37.0.0 ('Leave It') 64-bit Writing library : libebml v1.3.9 + libmatroska v1.5.2 Copyright : NSBC Comment : NoNe | NSBC DATE_RECORDED : 2019 Video ID : 1 Format : AVC Format/Info : Advanced Video Codec Format profile : High@L3.1 Format settings : CABAC / 4 Ref Frames Format settings, CABAC : Yes Format settings, Reference frames : 4 frames Codec ID : V_MPEG4/ISO/AVC Duration : 1 h 10 min Bit rate : 4 000 kb/s Width : 1 280 pixels Height : 720 pixels Display aspect ratio : 16:9 Frame rate mode : Constant Frame rate : 30.000 FPS Color space : YUV Chroma subsampling : 4:2:0 Bit depth : 8 bits Scan type : Progressive Bits/(Pixel*Frame) : 0.145 Stream size : 1.96 GiB (97%) Title : [NSBC] Writing library : x264 core 155 r2901 7d0ff22 Encoding settings : cabac=1 / ref=3 / deblock=1:0:0 / analyse=0x3:0x113 / me=hex / subme=7 / psy=1 / psy_rd=1.00:0.00 / mixed_ref=1 / me_range=16 / chroma_me=1 / trellis=1 / 8x8dct=1 / cqm=0 / deadzone=21,11 / fast_pskip=1 / chroma_qp_offset=-2 / threads=3 / lookahead_threads=1 / sliced_threads=0 / nr=0 / decimate=1 / interlaced=0 / bluray_compat=0 / constrained_intra=0 / bframes=3 / b_pyramid=2 / b_adapt=1 / b_bias=0 / direct=1 / weightb=1 / open_gop=0 / weightp=2 / keyint=250 / keyint_min=25 / scenecut=40 / intra_refresh=0 / rc_lookahead=40 / rc=abr / mbtree=1 / bitrate=4000 / ratetol=1.0 / qcomp=0.60 / qpmin=0 / qpmax=69 / qpstep=4 / ip_ratio=1.40 / aq=1:1.00 Default : Yes Forced : No Audio ID : 2 Format : AAC LC Format/Info : Advanced Audio Codec Low Complexity Codec ID : A_AAC-2 Duration : 1 h 10 min Bit rate : 128 kb/s Channel(s) : 2 channels Channel layout : L R Sampling rate : 48.0 kHz Frame rate : 46.875 FPS (1024 SPF) Compression mode : Lossy Delay relative to video : -21 ms Stream size : 64.3 MiB (3%) Title : [NSBC] Language : Japanese Default : Yes Forced : No ```

File list

  • [NSBC] Sherlock E01 [HDTV] [720p].mkv (2.0 GiB)

NOSoba (uploader)

User
> ### V2 are available on my personal [blog](https://nosobacrew.wordpress.com/2019/09/11/v2/) ;)