[NSBC] Sherlock E01 [WEBDL] [720p]

Category:
Date:
2019-10-07 14:04 UTC
Submitter:
Seeders:
14
Information:
TlNCQy50bw==
Leechers:
2
File size:
1.0 GiB
Completed:
786
Info hash:
a1c7321b427ac070936885aae28b9a8588a1f902
> HDTV Tomorrow ![](https://www.fujitv.co.jp/sherlock/img/ogp.png "") ![](http://img.topddl.net/images/996302d817beab4f540adf01f97cfdb4.jpg "") ``` General Unique ID : 238989855901656683641707879255728494095 (0xB3CBC5A10B2431144920A254ABD4960F) Complete name : [NSBC] Sherlock E01 [WEBDL] [720p].mkv Format : Matroska Format version : Version 4 File size : 1.05 GiB Duration : 1 h 10 min Overall bit rate : 2 130 kb/s Movie name : [NSBC] Sherlock E01 [WEBDL] [720p] Encoded by : NoNe | NSBC Encoded date : UTC 2019-10-07 13:58:06 Writing application : mkvmerge v37.0.0 ('Leave It') 64-bit Writing library : libebml v1.3.9 + libmatroska v1.5.2 Copyright : NSBC Comment : NoNe | NSBC DATE_RECORDED : 2019 Video ID : 1 Format : AVC Format/Info : Advanced Video Codec Format profile : High@L4.1 Format settings : CABAC / 2 Ref Frames Format settings, CABAC : Yes Format settings, Reference frames : 2 frames Codec ID : V_MPEG4/ISO/AVC Duration : 1 h 10 min Bit rate mode : Constant Bit rate : 2 000 kb/s Width : 1 280 pixels Height : 720 pixels Display aspect ratio : 16:9 Frame rate mode : Constant Frame rate : 29.970 (30000/1001) FPS Color space : YUV Chroma subsampling : 4:2:0 Bit depth : 8 bits Scan type : Progressive Bits/(Pixel*Frame) : 0.072 Stream size : 1 006 MiB (94%) Title : [NSBC] Default : Yes Forced : No Color range : Limited Color primaries : BT.709 Transfer characteristics : BT.709 Matrix coefficients : BT.709 Audio ID : 2 Format : AAC LC Format/Info : Advanced Audio Codec Low Complexity Codec ID : A_AAC-2 Duration : 1 h 10 min Bit rate : 128 kb/s Channel(s) : 2 channels Channel layout : L R Sampling rate : 48.0 kHz Frame rate : 46.875 FPS (1024 SPF) Compression mode : Lossy Delay relative to video : -67 ms Stream size : 64.4 MiB (6%) Title : [NSBC] Language : Japanese Default : Yes Forced : No ```

File list

  • [NSBC] Sherlock E01 [WEBDL] [720p].mkv (1.0 GiB)