Digimon Tamers [DVDRip][English Dub]

Category:
Date:
2019-09-21 08:17 UTC
Submitter:
Seeders:
2
Information:
No information.
Leechers:
2
File size:
10.7 GiB
Completed:
98
Info hash:
8f31779b2a868be87b31263e7f1f89d9d8d783fb
![alt text](https://i.imgur.com/EYg9Txq.jpg "Digimon Tamers English") Again, I'm not really sure where I got this DVDRip from, I just remember that at the time it was a DVDRip release so i grabbed it whilst I could since the prior one I had was like 16GB and not even half the quality. This is purely dub, no subtitles or Japanese Audio. Also at this point I don't know what else I have left to offer with digimon lol.. Apart from maybe the movie collection? But I'm not sure since the quality is all over the place. Anyhow. Examples: ![alt text](https://i.imgur.com/5hLGYsH.png "Digimon Tamers English") ![alt text](https://i.imgur.com/7mixHSG.png "Digimon Tamers English") ![alt text](https://i.imgur.com/P7RiiJo.png "Digimon Tamers English") Info: General Format : Matroska Format version : Version 4 File size : 216 MiB Duration : 21 min 2 s Overall bit rate : 1 432 kb/s Encoded date : UTC 2016-04-16 15:52:35 Writing application : mkvmerge v8.9.0 ('Father Daughter') 64bit Writing library : libebml v1.3.3 + libmatroska v1.4.4 / Lavf55.19.104 ARTIST : Digimon Tamers Video ID : 1 Format : AVC Format/Info : Advanced Video Codec Format profile : Baseline@L3 Format settings : 2 Ref Frames Format settings, CABAC : No Format settings, Reference frames : 2 frames Codec ID : V_MPEG4/ISO/AVC Duration : 21 min 2 s Bit rate : 1 200 kb/s Width : 720 pixels Height : 480 pixels Display aspect ratio : 4:3 Frame rate mode : Constant Frame rate : 29.970 (30000/1001) FPS Standard : NTSC Color space : YUV Chroma subsampling : 4:2:0 Bit depth : 8 bits Scan type : Progressive Bits/(Pixel*Frame) : 0.116 Stream size : 181 MiB (84%) Writing library : x264 core 130 Language : English Default : No Forced : No Audio ID : 2 Format : AAC LC Format/Info : Advanced Audio Codec Low Complexity Codec ID : A_AAC-2 Duration : 21 min 2 s Bit rate : 224 kb/s Channel(s) : 2 channels Channel layout : L R Sampling rate : 44.1 kHz Frame rate : 43.066 FPS (1024 SPF) Compression mode : Lossy Delay relative to video : -46 ms Stream size : 33.7 MiB (16%) Language : English Default : Yes Forced : No

File list

  • Digimon Tamers [DVDRip][Dub]
    • 01 - Guilmon Comes Alive.mkv (215.6 MiB)
    • 02 - Digimon, Digimon Everywhere.mkv (213.7 MiB)
    • 03 - To Fight Or Not To Fight.mkv (206.4 MiB)
    • 04 - It Came From The Other Side.mkv (206.7 MiB)
    • 05 - Dream A Little Dream.mkv (215.4 MiB)
    • 06 - O Partner, Where Art Thou.mkv (217.3 MiB)
    • 07 - Now You See It, Now You Don't.mkv (217.3 MiB)
    • 08 - A Question Of Trust.mkv (215.9 MiB)
    • 09 - Not As Seen On TV.mkv (216.7 MiB)
    • 10 - The Icemon Cometh.mkv (219.5 MiB)
    • 11 - Much Ado About Musyamon.mkv (216.5 MiB)
    • 12 - Divided They Stand.mkv (216.9 MiB)
    • 13 - Juggernaut.mkv (215.6 MiB)
    • 14 - Grow Mon Grow.mkv (215.1 MiB)
    • 15 - Snakes, Trains, And Digimon.mkv (215.9 MiB)
    • 16 - Back To Nature, Back To Battle.mkv (218.5 MiB)
    • 17 - Duel With The Deva.mkv (214.2 MiB)
    • 18 - Digital Beauty.mkv (217.0 MiB)
    • 19 - Impmon's Last Stand.mkv (215.8 MiB)
    • 20 - Out Of The Blue.mkv (217.8 MiB)
    • 21 - Jeri's Quest.mkv (220.0 MiB)
    • 22 - The Boar Wars.mkv (219.1 MiB)
    • 22- A World Apart.mkv (210.4 MiB)
    • 24 - The Journey Begins.mkv (215.4 MiB)
    • 25 - Brave New Digital World.mkv (216.9 MiB)
    • 26 - Kazu And Kenta's Excellent Adventure.mkv (216.2 MiB)
    • 27 - Motorcycle Madness.mkv (216.5 MiB)
    • 28 - Blame It On Ryo.mkv (217.6 MiB)
    • 29 - Goliath.mkv (217.0 MiB)
    • 30 - The Imperfect Storm.mkv (217.1 MiB)
    • 31 - Kazu's Upgrade.mkv (216.0 MiB)
    • 32 - Shibumi Speaks.mkv (215.3 MiB)
    • 33 - Rabbit Transit.mkv (216.1 MiB)
    • 34 - Lionheart.mkv (219.5 MiB)
    • 35 - Give A Little Bit.mkv (208.5 MiB)
    • 36 - The Battle Within.mkv (215.2 MiB)
    • 37 - No Mon Is An Island.mkv (216.6 MiB)
    • 38 - Azulongmon Explains It All.mkv (213.9 MiB)
    • 39 - Song Of Sakuyamon.mkv (213.5 MiB)
    • 40 - Janyu's Ark.mkv (209.3 MiB)
    • 41 - Homeward Bound.mkv (214.7 MiB)
    • 42 - Reunion.mkv (209.6 MiB)
    • 43 - Beelzemon's Big Day.mkv (216.3 MiB)
    • 44 - The Messenger.mkv (217.6 MiB)
    • 45 - The D-Reaper's Disguise.mkv (218.1 MiB)
    • 46 - When Is A Mon Justimon.mkv (218.2 MiB)
    • 47 - His Kingdom For A Horse.mkv (217.9 MiB)
    • 48 - Shadow Of The Beast King.mkv (219.0 MiB)
    • 49 - D-Reaper's Feast.mkv (219.0 MiB)
    • 50 - Jeri Fights Back.mkv (219.2 MiB)
    • 51 - Such Sweet Sorrow.mkv (219.3 MiB)