[NSBC] Real⇔Fake E03 [WEBDL] [1080p]

Category:
Date:
2019-09-17 22:55 UTC
Submitter:
Seeders:
3
Information:
TlNCQy50bw==
Leechers:
4
File size:
272.5 MiB
Completed:
393
Info hash:
a95068b09a633604ff15e8187d64a3fcef4d6684
> ### Encode version are available on my personal [blog](https://nosobacrew.wordpress.com/2019/09/11/x265-hevc/) ;) ![Posters](http://img.topddl.net/images/bc1ef7794fbcdb09cca8960c5c22ec59.png "") ![Thumbnails](http://img.topddl.net/images/b11309444d3f903bdf4ad50bf35930a2.jpg "") ``` General Unique ID : 147370960155740073290568796527304249556 (0x6EDE9D508208E8986E5A6737865A10D4) Complete name : [NSBC] Real⇔Fake E03 [WEBDL] [1080p].mkv Format : Matroska Format version : Version 4 File size : 272 MiB Duration : 24 min 6 s Overall bit rate : 1 580 kb/s Movie name : [NSBC] Real⇔Fake E03 [WEBDL] [1080p] Encoded by : NoNe | NSBC Encoded date : UTC 2019-09-17 22:49:47 Writing application : mkvmerge v37.0.0 ('Leave It') 64-bit Writing library : libebml v1.3.9 + libmatroska v1.5.2 Copyright : NSBC Comment : NoNe | NSBC DATE_RECORDED : 2019 Video ID : 1 Format : AVC Format/Info : Advanced Video Codec Format profile : High@L4 Format settings : CABAC / 4 Ref Frames Format settings, CABAC : Yes Format settings, Reference frames : 4 frames Codec ID : V_MPEG4/ISO/AVC Duration : 24 min 6 s Bit rate : 1 514 kb/s Width : 1 920 pixels Height : 1 080 pixels Display aspect ratio : 16:9 Frame rate mode : Constant Frame rate : 29.970 (30000/1001) FPS Color space : YUV Chroma subsampling : 4:2:0 Bit depth : 8 bits Scan type : Progressive Bits/(Pixel*Frame) : 0.024 Stream size : 261 MiB (96%) Title : [NSBC] Writing library : Zencoder Video Encoding System Default : Yes Forced : No Audio ID : 2 Format : AAC LC Format/Info : Advanced Audio Codec Low Complexity Codec ID : A_AAC-2 Duration : 24 min 5 s Bit rate : 64.0 kb/s Channel(s) : 2 channels Channel layout : L R Sampling rate : 48.0 kHz Frame rate : 46.875 FPS (1024 SPF) Compression mode : Lossy Delay relative to video : -67 ms Stream size : 11.0 MiB (4%) Title : [NSBC] Language : Japanese Default : Yes Forced : No ```

File list

  • [NSBC] Real⇔Fake E03 [WEBDL] [1080p].mkv (272.5 MiB)

NOSoba (uploader)

User
> ### Encode version are available on my personal [blog](https://nosobacrew.wordpress.com/2019/09/11/x265-hevc/) ;)
Thanks a lot for this :'D
Hi, why I can't download this episode? The downloading didn't make any progress