[NSBC] Yellow Tears / Ki-iroi Namida 2007 [BluRay] [1080p]

Category:
Date:
2019-09-11 23:21 UTC
Submitter:
Seeders:
2
Information:
TlNCQy50bw==
Leechers:
7
File size:
20.4 GiB
Completed:
109
Info hash:
e96d2ee29b8d43a2135c63febfb266ca0538b74b
> ### Thanks to Yuzuki Tanaka for providing the BDMV ![](http://img.topddl.net/images/6117f5ecc45fd5ea33f3347d514fa4dc.jpg "") ![](http://img.topddl.net/images/1cb98c8bf5033f1217b9e3116e3b2c7b.png "") ![](http://img.topddl.net/images/50c824323b87d0d42e25e8352387da38.png "") ![](http://img.topddl.net/images/3e163b0f8c66a8c4634a7c11ca335a9d.png "") ![](http://img.topddl.net/images/7410727ea2f581a5dd105a98e5ba39d9.png "") ![](http://img.topddl.net/images/0f321f45d1f18c17c1bd7dc65205e16f.png "") ``` General Unique ID : 301881137623253646374212490661172358153 (0xE31C3137E9FFCCDE41DA978EB21C2C09) Complete name : Yellow.Tears.2007.1080p.BluRay.DTS.x264-NSBC.mkv Format : Matroska Format version : Version 4 File size : 20.4 GiB Duration : 2 h 7 min Overall bit rate : 22.9 Mb/s Movie name : Yellow.Tears.2007.1080p.BluRay.DTS.x264-NSBC Encoded by : ZeC | NSBC Encoded date : UTC 2019-09-11 21:58:57 Writing application : mkvmerge v37.0.0 ('Leave It') 64-bit Writing library : libebml v1.3.9 + libmatroska v1.5.2 Copyright : NSBC Comment : ZeC | NSBC Video ID : 1 Format : AVC Format/Info : Advanced Video Codec Format profile : High@L5 Format settings : CABAC / 5 Ref Frames Format settings, CABAC : Yes Format settings, Reference frames : 5 frames Codec ID : V_MPEG4/ISO/AVC Duration : 2 h 7 min Bit rate : 20.6 Mb/s Width : 1 920 pixels Height : 1 080 pixels Display aspect ratio : 16:9 Frame rate mode : Variable Frame rate : 23.976 FPS Color space : YUV Chroma subsampling : 4:2:0 Bit depth : 8 bits Scan type : Progressive Bits/(Pixel*Frame) : 0.414 Stream size : 18.4 GiB (90%) Title : [NSBC] Writing library : x264 core 158 r2984+49 6932f4a t_mod_New [0-bit@all X86_64] Encoding settings : cabac=1 / ref=5 / deblock=1:0:0 / analyse=0x3:0x113 / me=hex / subme=8 / psy=1 / fade_compensate=0.00 / psy_rd=1.00:0.00 / mixed_ref=1 / me_range=16 / chroma_me=1 / trellis=2 / 8x8dct=1 / cqm=0 / deadzone=21,11 / fast_pskip=1 / chroma_qp_offset=-2 / threads=3 / lookahead_threads=1 / sliced_threads=0 / nr=0 / decimate=1 / interlaced=0 / bluray_compat=0 / constrained_intra=0 / fgo=0 / bframes=3 / b_pyramid=2 / b_adapt=1 / b_bias=0 / direct=3 / weightb=1 / open_gop=0 / weightp=2 / keyint=250 / keyint_min=23 / scenecut=40 / intra_refresh=0 / rc_lookahead=50 / rc=crf / mbtree=1 / crf=17.0000 / qcomp=0.60 / qpmin=0:0:0 / qpmax=69:69:69 / qpstep=4 / ip_ratio=1.40 / aq=1:1.00 / aq-sensitivity=10.00 / aq-factor=1.00:1.00:1.00 / aq2=0 / aq3=0 Default : Yes Forced : No Audio #1 ID : 2 Format : DTS Format/Info : Digital Theater Systems Codec ID : A_DTS Duration : 2 h 7 min Bit rate mode : Constant Bit rate : 1 509 kb/s Channel(s) : 4 channels Channel layout : C L R Cb Sampling rate : 48.0 kHz Frame rate : 93.750 FPS (512 SPF) Bit depth : 24 bits Compression mode : Lossy Stream size : 1.35 GiB (7%) Title : [NSBC] Language : Japanese Default : Yes Forced : No Audio #2 ID : 3 Format : DTS Format/Info : Digital Theater Systems Codec ID : A_DTS Duration : 2 h 7 min Bit rate mode : Constant Bit rate : 768 kb/s Channel(s) : 2 channels Channel layout : L R Sampling rate : 48.0 kHz Frame rate : 93.750 FPS (512 SPF) Bit depth : 24 bits Compression mode : Lossy Stream size : 703 MiB (3%) Title : [NSBC] Language : Japanese Default : No Forced : No Text #1 ID : 4 Format : PGS Muxing mode : zlib Codec ID : S_HDMV/PGS Codec ID/Info : Picture based subtitle format used on BDs/HD-DVDs Duration : 2 h 7 min Bit rate : 22.8 kb/s Count of elements : 2420 Stream size : 20.7 MiB (0%) Title : [NSBC] Language : Japanese Default : Yes Forced : No Text #2 ID : 5 Format : PGS Muxing mode : zlib Codec ID : S_HDMV/PGS Codec ID/Info : Picture based subtitle format used on BDs/HD-DVDs Duration : 2 h 7 min Bit rate : 24.7 kb/s Count of elements : 2516 Stream size : 22.6 MiB (0%) Title : [NSBC] Language : English Default : No Forced : No Menu 00:00:00.000 : :Chapter 01 00:07:24.861 : :Chapter 02 00:12:52.146 : :Chapter 03 00:15:33.057 : :Chapter 04 00:25:10.884 : :Chapter 05 00:28:24.328 : :Chapter 06 00:31:38.772 : :Chapter 07 00:38:48.368 : :Chapter 08 00:40:15.538 : :Chapter 09 00:44:53.024 : :Chapter 10 00:52:15.174 : :Chapter 11 01:03:15.458 : :Chapter 12 01:12:15.873 : :Chapter 13 01:16:43.474 : :Chapter 14 01:24:26.436 : :Chapter 15 01:31:36.991 : :Chapter 16 01:38:28.986 : :Chapter 17 01:53:11.493 : :Chapter 18 01:59:09.809 : :Chapter 19 02:02:33.346 : :Chapter 20 ```

File list

  • Yellow.Tears.2007.1080p.BluRay.DTS.x264-NSBC.mkv (20.4 GiB)
Great work on this!!!
Looks wonderful, thank you!