[NSBC] Bishonure Tantei Mizuno Hagoromo E11 [WEBDL] [720p]

Category:
Date:
2019-09-11 23:16 UTC
Submitter:
Seeders:
2
Information:
TlNCQy50bw==
Leechers:
1
File size:
571.2 MiB
Completed:
462
Info hash:
91d10142582e02411032223a8ae9f7cbb2517c7b
![Poster](http://img.topddl.net/images/1736f4a53ecd095ab310ccc3bac3490d.jpg "") ![Thumbnails](http://img.topddl.net/images/41df3634d0038479b72d7e3cdbeea98f.png "") ``` General Unique ID : 111175853877346342561525172247307629510 (0x53A3B0CBA7893E9AAC848A893C8E33C6) Complete name : [NSBC] Bishonure Tantei Mizuno Hagoromo E11 [WEBDL] [720p].mkv Format : Matroska Format version : Version 4 File size : 571 MiB Duration : 25 min 34 s Overall bit rate : 3 123 kb/s Movie name : [NSBC] Bishonure Tantei Mizuno Hagoromo E11 [WEBDL] [720p] Encoded by : NoNe | NSBC Encoded date : UTC 2019-09-11 23:11:31 Writing application : mkvmerge v37.0.0 ('Leave It') 64-bit Writing library : libebml v1.3.9 + libmatroska v1.5.2 Copyright : NSBC Comment : NoNe | NSBC DATE_RECORDED : 2019 Video ID : 1 Format : AVC Format/Info : Advanced Video Codec Format profile : Main@L3.1 Format settings : CABAC / 3 Ref Frames Format settings, CABAC : Yes Format settings, Reference frames : 3 frames Format settings, GOP : M=1, N=30 Codec ID : V_MPEG4/ISO/AVC Duration : 25 min 34 s Bit rate : 2 993 kb/s Width : 1 280 pixels Height : 720 pixels Display aspect ratio : 16:9 Frame rate mode : Constant Frame rate : 29.970 (30000/1001) FPS Color space : YUV Chroma subsampling : 4:2:0 Bit depth : 8 bits Scan type : Progressive Bits/(Pixel*Frame) : 0.108 Stream size : 547 MiB (96%) Title : [NSBC] Writing library : Zencoder Video Encoding System Default : Yes Forced : No Audio ID : 2 Format : AAC LC Format/Info : Advanced Audio Codec Low Complexity Codec ID : A_AAC-2 Duration : 25 min 34 s Bit rate : 128 kb/s Channel(s) : 2 channels Channel layout : L R Sampling rate : 48.0 kHz Frame rate : 46.875 FPS (1024 SPF) Compression mode : Lossy Stream size : 23.4 MiB (4%) Title : [NSBC] Language : Japanese Default : Yes Forced : No ```

File list

  • [NSBC] Bishonure Tantei Mizuno Hagoromo E11 [WEBDL] [720p].mkv (571.2 MiB)