[NightBaron] Yakusoku no Neverland [BD]

Category:
Date:
2019-09-11 18:08 UTC
Submitter:
Seeders:
4
Information:
nightbaronsubs.ml
Leechers:
1
File size:
9.4 GiB
Completed:
7
Info hash:
5c50745f5d593de940e39bf6a9b773079e67e7c8
``` General Complete name : \Yakusoku no Neverland\[NightBaron] Yakusoku no Neverland - 01 [BD][1080p][21DF9C3B].mkv Format : Matroska Format version : Version 4 File size : 906 MiB Duration : 22 min 51 s Overall bit rate mode : Variable Overall bit rate : 5 540 kb/s Encoded date : UTC 2019-09-11 01:17:11 Writing application : mkvmerge v36.0.0 ('Is That Jazz?') 64-bit Writing library : libebml v1.3.9 + libmatroska v1.5.2 Attachments : Bahij Jalal-Bold.ttf / Bahij_Mitra-Bold.ttf / FS_GRAPH.TTF / Hacen Algeria.ttf / Hacen Liner Screen_0.ttf / Hacen Trarza Hd.ttf / Hacen Tunisia Lt.ttf / Khat-e-Kamal.ttf / KozMinPr6N-Heavy.otf / LFAX.TTF / LFAXD.TTF / Bahij_Mitra-Bold_0.ttf / Hacen Trarza Hd_0.ttf Video ID : 1 Format : AVC Format/Info : Advanced Video Codec Format profile : High 10@L5 Format settings : CABAC / 5 Ref Frames Format settings, CABAC : Yes Format settings, Reference : 5 frames Codec ID : V_MPEG4/ISO/AVC Duration : 22 min 51 s Bit rate : 4 082 kb/s Width : 1 920 pixels Height : 1 080 pixels Display aspect ratio : 16:9 Frame rate mode : Constant Frame rate : 23.976 (24000/1001) FPS Color space : YUV Chroma subsampling : 4:2:0 Bit depth : 10 bits Scan type : Progressive Bits/(Pixel*Frame) : 0.082 Stream size : 667 MiB (74%) Writing library : x264 core 157 r2935 545de2f Encoding settings : cabac=1 / ref=5 / deblock=1:1:1 / analyse=0x3:0x113 / me=umh / subme=9 / psy=1 / psy_rd=1.00:0.00 / mixed_ref=1 / me_range=32 / chroma_me=1 / trellis=2 / 8x8dct=1 / cqm=0 / deadzone=21,11 / fast_pskip=0 / chroma_qp_offset=-2 / threads=34 / lookahead_threads=2 / sliced_threads=0 / nr=0 / decimate=1 / interlaced=0 / bluray_compat=0 / stitchable=1 / constrained_intra=0 / bframes=3 / b_pyramid=2 / b_adapt=2 / b_bias=0 / direct=1 / weightb=1 / open_gop=0 / weightp=1 / keyint=240 / keyint_min=23 / scenecut=40 / intra_refresh=0 / rc_lookahead=40 / rc=crf / mbtree=1 / crf=15.0 / qcomp=0.70 / qpmin=0 / qpmax=69 / qpstep=4 / ip_ratio=1.40 / aq=1:1.00 Language : Japanese Default : Yes Forced : No Audio ID : 2 Format : FLAC Format/Info : Free Lossless Audio Codec Codec ID : A_FLAC Duration : 22 min 51 s Bit rate mode : Variable Bit rate : 1 396 kb/s Channel(s) : 2 channels Channel layout : L R Sampling rate : 48.0 kHz Frame rate : 11.719 FPS (4096 SPF) Bit depth : 24 bits Compression mode : Lossless Stream size : 228 MiB (25%) Writing library : libFLAC 1.3.2 (UTC 2017-01-01) Language : Japanese Default : Yes Forced : No Text ID : 3 Format : ASS Codec ID : S_TEXT/ASS Codec ID/Info : Advanced Sub Station Alpha Duration : 21 min 5 s Bit rate : 126 b/s Count of elements : 246 Compression mode : Lossless Stream size : 19.6 KiB (0%) Language : Arabic Default : Yes Forced : No ```

File list

  • Yakusoku no Neverland [BD]
    • [NightBaron] Yakusoku no Neverland - 01 [BD][1080p][21DF9C3B].mkv (905.7 MiB)
    • [NightBaron] Yakusoku no Neverland - 02 [BD][1080p][EF0D4159].mkv (799.8 MiB)
    • [NightBaron] Yakusoku no Neverland - 03 [BD][1080p][F2382295].mkv (829.3 MiB)
    • [NightBaron] Yakusoku no Neverland - 04 [BD][1080p][B3D61F1F].mkv (728.0 MiB)
    • [NightBaron] Yakusoku no Neverland - 05 [BD][1080p][8A7A3D7E].mkv (723.5 MiB)
    • [NightBaron] Yakusoku no Neverland - 06 [BD][1080p][9C05473F].mkv (802.4 MiB)
    • [NightBaron] Yakusoku no Neverland - 07 [BD][1080p][DAECF52F].mkv (705.0 MiB)
    • [NightBaron] Yakusoku no Neverland - 08 [BD][1080p][8664B647].mkv (829.2 MiB)
    • [NightBaron] Yakusoku no Neverland - 09 [BD][1080p][050C99C1].mkv (778.8 MiB)
    • [NightBaron] Yakusoku no Neverland - 10 [BD][1080p][D5254910].mkv (803.5 MiB)
    • [NightBaron] Yakusoku no Neverland - 11 [BD][1080p][ED328638].mkv (915.4 MiB)
    • [NightBaron] Yakusoku no Neverland - 12 [BD][1080p][2E811622].mkv (845.6 MiB)