[NSBC] Real⇔Fake E02 [WEBDL] [1080p]

Category:
Date:
2019-09-10 23:17 UTC
Submitter:
Seeders:
8
Information:
TlNCQy50bw==
Leechers:
5
File size:
525.9 MiB
Completed:
328
Info hash:
430ab02413e2d799d06256d21fda0b67bf5e9cd1
> ### Encode version are available on my personal [blog](https://nosobacrew.wordpress.com/2019/09/11/x265-hevc/) ;) ![Posters](http://img.topddl.net/images/bc1ef7794fbcdb09cca8960c5c22ec59.png "") ![Thumbnails](http://img.topddl.net/images/6298b67ba2035ef38ff714f74c2a19f3.png "") ``` General Unique ID : 258667447537578322961326201221428315023 (0xC29989CD0D1E2FF06232EF0DA62C838F) Complete name : [NSBC] Real⇔Fake E02 [WEBDL] [1080p].mkv Format : Matroska Format version : Version 4 File size : 526 MiB Duration : 24 min 6 s Overall bit rate : 3 051 kb/s Movie name : [NSBC] Real⇔Fake E02 [WEBDL] [1080p] Encoded by : NoNe | NSBC Encoded date : UTC 2019-09-10 23:11:27 Writing application : mkvmerge v37.0.0 ('Leave It') 64-bit Writing library : libebml v1.3.9 + libmatroska v1.5.2 Copyright : NSBC Comment : NoNe | NSBC DATE_RECORDED : 2019 Video ID : 1 Format : AVC Format/Info : Advanced Video Codec Format profile : High@L4 Format settings : CABAC / 4 Ref Frames Format settings, CABAC : Yes Format settings, Reference frames : 4 frames Codec ID : V_MPEG4/ISO/AVC Duration : 24 min 6 s Bit rate : 2 984 kb/s Width : 1 920 pixels Height : 1 080 pixels Display aspect ratio : 16:9 Frame rate mode : Constant Frame rate : 29.970 (30000/1001) FPS Color space : YUV Chroma subsampling : 4:2:0 Bit depth : 8 bits Scan type : Progressive Bits/(Pixel*Frame) : 0.048 Stream size : 514 MiB (98%) Title : [NSBC] Writing library : Zencoder Video Encoding System Default : Yes Forced : No Audio ID : 2 Format : AAC LC Format/Info : Advanced Audio Codec Low Complexity Codec ID : A_AAC-2 Duration : 24 min 5 s Bit rate : 63.9 kb/s Channel(s) : 2 channels Channel layout : L R Sampling rate : 48.0 kHz Frame rate : 46.875 FPS (1024 SPF) Compression mode : Lossy Delay relative to video : -67 ms Stream size : 11.0 MiB (2%) Title : [NSBC] Language : Japanese Default : Yes Forced : No ```

File list

  • [NSBC] Real⇔Fake E02 [WEBDL] [1080p].mkv (525.9 MiB)

NOSoba (uploader)

User
> ### Encode version are available on my personal [blog](https://nosobacrew.wordpress.com/2019/09/11/x265-hevc/) ;)