[NSBC] Ogamiya Kaidan II E10 [WEBDL] [720p]

Category:
Date:
2019-09-09 22:52 UTC
Submitter:
Seeders:
5
Information:
TlNCQy50bw==
Leechers:
2
File size:
515.5 MiB
Completed:
340
Info hash:
1b2a7df2f55be931890e621c38b75a2298eb79b7
![POSTER](http://img.topddl.net/images/8ae8c8557b80ab490dc1de7714ab623c.jpg "") ![Thumbnails](http://img.topddl.net/images/bbf9df51075bec4610369042fddf2c8f.png "") ``` General Unique ID : 68435403850552397974850303382773318890 (0x337C2DEA1765C2E8D570A26B3E1C44EA) Complete name : [NSBC] Ogamiya Kaidan II E10 [WEBDL] [720p].mkv Format : Matroska Format version : Version 4 File size : 516 MiB Duration : 23 min 4 s Overall bit rate : 3 124 kb/s Movie name : [NSBC] Ogamiya Kaidan II E10 [WEBDL] [720p] Encoded by : NoNe | NSBC Encoded date : UTC 2019-09-09 22:41:18 Writing application : mkvmerge v37.0.0 ('Leave It') 64-bit Writing library : libebml v1.3.9 + libmatroska v1.5.2 Copyright : NSBC Comment : NoNe | NSBC DATE_RECORDED : 2019 Video ID : 1 Format : AVC Format/Info : Advanced Video Codec Format profile : Main@L3.1 Format settings : CABAC / 3 Ref Frames Format settings, CABAC : Yes Format settings, Reference frames : 3 frames Format settings, GOP : M=1, N=30 Codec ID : V_MPEG4/ISO/AVC Duration : 23 min 4 s Bit rate : 2 994 kb/s Width : 1 280 pixels Height : 720 pixels Display aspect ratio : 16:9 Frame rate mode : Constant Frame rate : 29.970 (30000/1001) FPS Color space : YUV Chroma subsampling : 4:2:0 Bit depth : 8 bits Scan type : Progressive Bits/(Pixel*Frame) : 0.108 Stream size : 494 MiB (96%) Title : [NSBC] Writing library : Zencoder Video Encoding System Default : Yes Forced : No Audio ID : 2 Format : AAC LC Format/Info : Advanced Audio Codec Low Complexity Codec ID : A_AAC-2 Duration : 23 min 4 s Bit rate : 128 kb/s Channel(s) : 2 channels Channel layout : L R Sampling rate : 48.0 kHz Frame rate : 46.875 FPS (1024 SPF) Compression mode : Lossy Stream size : 21.1 MiB (4%) Title : [NSBC] Language : Japanese Default : Yes Forced : No ```

File list

  • [NSBC] Ogamiya Kaidan II E10 [WEBDL] [720p].mkv (515.5 MiB)