[NSBC] Boku wa Mada Kimi wo Aisanai Koto ga Dekiru E08 [WEBDL] [720p]

Category:
Date:
2019-09-09 22:14 UTC
Submitter:
Seeders:
4
Information:
TlNCQy50bw==
Leechers:
2
File size:
750.9 MiB
Completed:
355
Info hash:
88ae9e99c7c052bb01dd5bb013f60dc45ee8bf0d
![Poster](http://img.topddl.net/images/9bd6d7f0ac73dde891e6a8c70fcb1e17.jpg "") ![Thumbnails](http://img.topddl.net/images/a41136e7dd4997ba83e777ece8c20c5c.png "") ``` General Unique ID : 33311883061067843974192116390396328027 (0x190FA2A39E64ED005F84CCD6F772785B) Complete name : [NSBC] Boku wa Mada Kimi wo Aisanai Koto ga Dekiru E08 [WEBDL] [720p].mkv Format : Matroska Format version : Version 4 File size : 751 MiB Duration : 49 min 18 s Overall bit rate mode : Variable Overall bit rate : 2 129 kb/s Movie name : [NSBC] Boku wa Mada Kimi wo Aisanai Koto ga Dekiru E08 [WEBDL] [720p] Encoded by : NoNe | NSBC Encoded date : UTC 2019-09-09 22:07:10 Writing application : mkvmerge v37.0.0 ('Leave It') 64-bit Writing library : libebml v1.3.9 + libmatroska v1.5.2 Copyright : NSBC Comment : NoNe | NSBC DATE_RECORDED : 2019 Video ID : 1 Format : AVC Format/Info : Advanced Video Codec Format profile : High@L4.1 Format settings : CABAC / 4 Ref Frames Format settings, CABAC : Yes Format settings, Reference frames : 4 frames Codec ID : V_MPEG4/ISO/AVC Duration : 49 min 17 s Bit rate mode : Variable Bit rate : 1 999 kb/s Maximum bit rate : 6 000 kb/s Width : 1 280 pixels Height : 720 pixels Display aspect ratio : 16:9 Frame rate mode : Constant Frame rate : 29.970 (30000/1001) FPS Color space : YUV Chroma subsampling : 4:2:0 Bit depth : 8 bits Scan type : Progressive Bits/(Pixel*Frame) : 0.072 Stream size : 705 MiB (94%) Title : [NSBC] Default : Yes Forced : No Color range : Limited Color primaries : BT.709 Transfer characteristics : BT.709 Matrix coefficients : BT.709 Audio ID : 2 Format : AAC LC Format/Info : Advanced Audio Codec Low Complexity Codec ID : A_AAC-2 Duration : 49 min 17 s Bit rate : 128 kb/s Channel(s) : 2 channels Channel layout : L R Sampling rate : 48.0 kHz Frame rate : 46.875 FPS (1024 SPF) Compression mode : Lossy Delay relative to video : -67 ms Stream size : 45.1 MiB (6%) Title : [NSBC] Language : Japanese Default : Yes Forced : No ```

File list

  • [NSBC] Boku wa Mada Kimi wo Aisanai Koto ga Dekiru E08 [WEBDL] [720p].mkv (750.9 MiB)