[NSBC] Runway 24 E08 [WEBDL] [1080p]

Category:
Date:
2019-09-08 23:21 UTC
Submitter:
Seeders:
6
Information:
TlNCQy50bw==
Leechers:
3
File size:
512.4 MiB
Completed:
366
Info hash:
d07775927de53c01a05fef105afb7b672da544fc
![POSTER](http://img.topddl.net/images/651a7d25c0fe83fee811926db6ef7052.jpg "") ![Thumbnails](http://img.topddl.net/images/75c4ccb3ac50faf3ece1c800b6226b51.png "") ``` General Unique ID : 270758482197069466558352510215729813506 (0xCBB22FD5CBC3F5B6766E1C65F47D9802) Complete name : [NSBC] Runway 24 E08 [WEBDL] [1080p].mkv Format : Matroska Format version : Version 4 File size : 512 MiB Duration : 23 min 26 s Overall bit rate : 3 057 kb/s Movie name : [NSBC] Runway 24 E08 [WEBDL] [1080p] Encoded by : NoNe | NSBC Encoded date : UTC 2019-09-08 23:09:39 Writing application : mkvmerge v37.0.0 ('Leave It') 64-bit Writing library : libebml v1.3.9 + libmatroska v1.5.2 Copyright : NSBC Comment : NoNe | NSBC DATE_RECORDED : 2019 Video ID : 1 Format : AVC Format/Info : Advanced Video Codec Format profile : High@L4 Format settings : CABAC / 4 Ref Frames Format settings, CABAC : Yes Format settings, Reference frames : 4 frames Codec ID : V_MPEG4/ISO/AVC Duration : 23 min 26 s Bit rate : 2 991 kb/s Width : 1 920 pixels Height : 1 080 pixels Display aspect ratio : 16:9 Frame rate mode : Constant Frame rate : 29.970 (30000/1001) FPS Color space : YUV Chroma subsampling : 4:2:0 Bit depth : 8 bits Scan type : Progressive Bits/(Pixel*Frame) : 0.048 Stream size : 501 MiB (98%) Title : [NSBC] Writing library : Zencoder Video Encoding System Default : Yes Forced : No Color range : Limited Color primaries : BT.709 Transfer characteristics : BT.709 Matrix coefficients : BT.709 Audio ID : 2 Format : AAC LC Format/Info : Advanced Audio Codec Low Complexity Codec ID : A_AAC-2 Duration : 23 min 26 s Bit rate : 63.9 kb/s Channel(s) : 2 channels Channel layout : L R Sampling rate : 48.0 kHz Frame rate : 46.875 FPS (1024 SPF) Compression mode : Lossy Delay relative to video : -67 ms Stream size : 10.7 MiB (2%) Title : [NSBC] Language : Japanese Default : Yes Forced : No ```

File list

  • [NSBC] Runway 24 E08 [WEBDL] [1080p].mkv (512.4 MiB)