[NSBC] No Side Game E09 [WEBDL] [1080p]

Category:
Date:
2019-09-08 23:21 UTC
Submitter:
Seeders:
16
Information:
TlNCQy50bw==
Leechers:
4
File size:
864.2 MiB
Completed:
1063
Info hash:
e301d0ad36e1c3175f89309325f542a720906a72
![POSTER](http://img.topddl.net/images/9fd2f315e6d6b74aa5cdb4d35736d8d6.jpg "") ![Thumbnails](http://img.topddl.net/images/22c1db5c156cfe0e87bc8e01725c0ad9.png "") ``` General Unique ID : 22936471886854212789718727219213842901 (0x1141675F9A955DBFC6A22396195939D5) Complete name : [NSBC] No Side Game E09 [WEBDL] [1080p].mkv Format : Matroska Format version : Version 4 File size : 864 MiB Duration : 46 min 42 s Overall bit rate : 2 587 kb/s Movie name : [NSBC] No Side Game E09 [WEBDL] [1080p] Encoded by : NoNe | NSBC Encoded date : UTC 2019-09-08 23:07:26 Writing application : mkvmerge v37.0.0 ('Leave It') 64-bit Writing library : libebml v1.3.9 + libmatroska v1.5.2 Copyright : NSBC Comment : NoNe | NSBC DATE_RECORDED : 2019 Video ID : 1 Format : AVC Format/Info : Advanced Video Codec Format profile : High@L4 Format settings : CABAC / 4 Ref Frames Format settings, CABAC : Yes Format settings, Reference frames : 4 frames Codec ID : V_MPEG4/ISO/AVC Duration : 46 min 41 s Bit rate : 2 521 kb/s Width : 1 920 pixels Height : 1 080 pixels Display aspect ratio : 16:9 Frame rate mode : Constant Frame rate : 29.970 (30000/1001) FPS Color space : YUV Chroma subsampling : 4:2:0 Bit depth : 8 bits Scan type : Progressive Bits/(Pixel*Frame) : 0.041 Stream size : 842 MiB (97%) Title : [NSBC] Writing library : Zencoder Video Encoding System Default : Yes Forced : No Color range : Limited Color primaries : BT.709 Transfer characteristics : BT.709 Matrix coefficients : BT.709 Audio ID : 2 Format : AAC LC Format/Info : Advanced Audio Codec Low Complexity Codec ID : A_AAC-2 Duration : 46 min 42 s Bit rate : 63.9 kb/s Channel(s) : 2 channels Channel layout : L R Sampling rate : 48.0 kHz Frame rate : 46.875 FPS (1024 SPF) Compression mode : Lossy Delay relative to video : -67 ms Stream size : 21.4 MiB (2%) Title : [NSBC] Language : Japanese Default : Yes Forced : No ```

File list

  • [NSBC] No Side Game E09 [WEBDL] [1080p].mkv (864.2 MiB)