[NSBC] Anata no Ban Desu -CounterAttack- E20 END [WEBDL] [1080p]

Category:
Date:
2019-09-08 23:21 UTC
Submitter:
Seeders:
26
Information:
TlNCQy50bw==
Leechers:
4
File size:
760.5 MiB
Completed:
1326
Info hash:
7278d3132bafe79cff367a5a01ed92343ceb1cc9
> if you found any error, let me know by telling in comments.. ![POSTER](http://img.topddl.net/images/c17a80350db4fa01c7aeadd50f0752a2.jpg "") ![Thumbnails](http://img.topddl.net/images/eca33eb5b6b1e65df963742fae95955e.png "") ``` General Unique ID : 314798977922321633251067679430905333922 (0xECD413EAFBB50B3AC8E9F19ABF6288A2) Complete name : [NSBC] Anata no Ban Desu -CounterAttack- E20 END [WEBDL] [1080p].mkv Format : Matroska Format version : Version 4 File size : 761 MiB Duration : 45 min 59 s Overall bit rate : 2 312 kb/s Movie name : [NSBC] Anata no Ban Desu -CounterAttack- E20 END [WEBDL] [1080p] Encoded by : NoNe | NSBC Encoded date : UTC 2019-09-08 23:06:09 Writing application : mkvmerge v37.0.0 ('Leave It') 64-bit Writing library : libebml v1.3.9 + libmatroska v1.5.2 Copyright : NSBC Comment : NoNe | NSBC DATE_RECORDED : 2019 Video ID : 1 Format : AVC Format/Info : Advanced Video Codec Format profile : High@L4 Format settings : CABAC / 4 Ref Frames Format settings, CABAC : Yes Format settings, Reference frames : 4 frames Codec ID : V_MPEG4/ISO/AVC Duration : 45 min 59 s Bit rate : 2 246 kb/s Width : 1 920 pixels Height : 1 080 pixels Display aspect ratio : 16:9 Frame rate mode : Constant Frame rate : 29.970 (30000/1001) FPS Color space : YUV Chroma subsampling : 4:2:0 Bit depth : 8 bits Scan type : Progressive Bits/(Pixel*Frame) : 0.036 Stream size : 739 MiB (97%) Title : [NSBC] Writing library : Zencoder Video Encoding System Default : Yes Forced : No Audio ID : 2 Format : AAC LC Format/Info : Advanced Audio Codec Low Complexity Codec ID : A_AAC-2 Duration : 45 min 59 s Bit rate : 64.0 kb/s Channel(s) : 2 channels Channel layout : L R Sampling rate : 48.0 kHz Frame rate : 46.875 FPS (1024 SPF) Compression mode : Lossy Delay relative to video : -67 ms Stream size : 21.0 MiB (3%) Title : [NSBC] Language : Japanese Default : Yes Forced : No ```

File list

  • [NSBC] Anata no Ban Desu -CounterAttack- E20 END [WEBDL] [1080p].mkv (760.5 MiB)
Many thanks for (last) episode, hope hulu's episode we can get too from here

NOSoba (uploader)

User
what do you mean hulu eps? do you mean a spin off? well i dont have plan to get spin off...
Yeah the episode on kuroshima's past, i hope someone will get it ^^
Thumbnail Screenshot include *SPOILER*