Akame ga Kill! (2014) [1080p x265 HEVC 10bit BD Dual Audio AAC] [Prof]

Category:
Date:
2019-09-06 01:48 UTC
Submitter:
Seeders:
1
Information:
No information.
Leechers:
0
File size:
13.4 GiB
Completed:
1313
Info hash:
cc4ee31cc4b7ac34193bf0c8da10b88808ff31ee
[![95946l.jpg](https://i.postimg.cc/8PjwBs9k/95946l.jpg)](https://postimg.cc/ykCF7672) Synopsis Night Raid is the covert assassination branch of the Revolutionary Army, an uprising assembled to overthrow Prime Minister Honest, whose avarice and greed for power has lead him to take advantage of the child emperor's inexperience. Without a strong and benevolent leader, the rest of the nation is left to drown in poverty, strife, and ruin. Though the Night Raid members are all experienced killers, they understand that taking lives is far from commendable and that they will likely face retribution as they mercilessly eliminate anyone who stands in the revolution's way. This merry band of assassins' newest member is Tatsumi, a naïve boy from a remote village who had embarked on a journey to help his impoverished hometown and was won over by not only Night Raid's ideals, but also their resolve. Akame ga Kill! follows Tatsumi as he fights the Empire and comes face-to-face with powerful weapons, enemy assassins, challenges to his own morals and values, and ultimately, what it truly means to be an assassin with a cause. [Written by MAL Rewrite] Alternative Titles English: Akame ga Kill! Synonyms: Akame ga Kiru! Japanese: アカメが斬る! Information Type: TV Episodes: 24 Status: Finished Airing Aired: Jul 7, 2014 to Dec 15, 2014 Premiered: Summer 2014 Broadcast: Mondays at 00:00 (JST) Producers: Square Enix, TOHO animation Licensors: Sentai Filmworks Studios: White Fox Source: Manga Genres: Action, Adventure, Fantasy, Drama, Shounen Duration: 23 min. per ep. Rating: R - 17+ (violence & profanity) [![Prof-Episode-01-Kill-the-Darkness-mkv-snapshot-17-05-2019-0.png](https://i.postimg.cc/zv46Nh67/Prof-Episode-01-Kill-the-Darkness-mkv-snapshot-17-05-2019-0.png)](https://postimg.cc/GTJqJ4cT) [![Prof-Episode-02-Kill-the-Authority-mkv-snapshot-05-57-2019.png](https://i.postimg.cc/DZnBq6kR/Prof-Episode-02-Kill-the-Authority-mkv-snapshot-05-57-2019.png)](https://postimg.cc/PLVWHmqM) [![Prof-Episode-03-Kill-Your-Cares-mkv-snapshot-09-08-2019-09.png](https://i.postimg.cc/mkrjnrrw/Prof-Episode-03-Kill-Your-Cares-mkv-snapshot-09-08-2019-09.png)](https://postimg.cc/cgVfg0wg) Format : Matroska Format version : Version 4 File size : 547 MiB Duration : 23 min 41 s Overall bit rate : 3 227 kb/s Movie name : Akame ga Kill - 01 - Kill the Shadows Encoded date : UTC 2019-08-28 04:03:54 Writing application : mkvmerge v35.0.0 ('All The Love In The World') 64-bit Writing library : libebml v1.3.9 + libmatroska v1.5.2 Video ID : 1 Format : HEVC Format/Info : High Efficiency Video Coding Format profile : Main 10@L4@Main Codec ID : V_MPEGH/ISO/HEVC Duration : 23 min 41 s Bit rate : 2 283 kb/s Width : 1 920 pixels Height : 1 080 pixels Display aspect ratio : 16:9 Frame rate mode : Constant Frame rate : 23.976 (24000/1001) FPS Color space : YUV Chroma subsampling : 4:2:0 Bit depth : 10 bits Bits/(Pixel*Frame) : 0.046 Stream size : 387 MiB (71%) Writing library : x265 3.1+11-de920e0a3183:[Windows][MSVC 1922][64 bit] 10bit Encoding settings : cpuid=1111039 / frame-threads=2 / numa-pools=4 / wpp / no-pmode / no-pme / no-psnr / no-ssim / log-level=2 / input-csp=1 / input-res=1920x1080 / interlace=0 / total-frames=34072 / level-idc=0 / high-tier=1 / uhd-bd=0 / ref=4 / no-allow-non-conformance / no-repeat-headers / annexb / no-aud / no-hrd / info / hash=0 / no-temporal-layers / open-gop / min-keyint=23 / keyint=250 / gop-lookahead=0 / bframes=8 / b-adapt=2 / b-pyramid / bframe-bias=0 / rc-lookahead=80 / lookahead-slices=6 / scenecut=40 / radl=0 / no-splice / no-intra-refresh / ctu=64 / min-cu-size=8 / rect / no-amp / max-tu-size=32 / tu-inter-depth=1 / tu-intra-depth=1 / limit-tu=0 / rdoq-level=2 / dynamic-rd=0.00 / no-ssim-rd / signhide / no-tskip / nr-intra=0 / nr-inter=0 / no-constrained-intra / strong-intra-smoothing / max-merge=3 / limit-refs=3 / limit-modes / me=3 / subme=3 / merange=57 / temporal-mvp / no-hme / weightp / no-weightb / no-analyze-src-pics / deblock=0:0 / sao / no-sao-non-deblock / rd=4 / no-early-skip / rskip / no-fast-intra / no-tskip-fast / no-cu-lossless / no-b-intra / no-splitrd-skip / rdpenalty=0 / psy-rd=2.00 / psy-rdoq=1.00 / no-rd-refine / no-lossless / cbqpoffs=0 / crqpoffs=0 / rc=crf / crf=19.0 / qcomp=0.60 / qpstep=4 / stats-write=0 / stats-read=0 / ipratio=1.40 / pbratio=1.30 / aq-mode=2 / aq-strength=1.00 / cutree / zone-count=0 / no-strict-cbr / qg-size=32 / no-rc-grain / qpmax=69 / qpmin=0 / no-const-vbv / sar=0 / overscan=0 / videoformat=5 / range=0 / colorprim=2 / transfer=2 / colormatrix=2 / chromaloc=0 / display-window=0cll=0,0 / min-luma=0 / max-luma=1023 / log2-max-poc-lsb=8 / vui-timing-info / vui-hrd-info / slices=1 / no-opt-qp-pps / no-opt-ref-list-length-pps / no-multi-pass-opt-rps / scenecut-bias=0.00 / no-opt-cu-delta-qp / no-aq-motion / no-hdr / no-hdr-opt / no-dhdr10-opt / no-idr-recovery-sei / analysis-reuse-level=5 / scale-factor=0 / refine-intra=0 / refine-inter=0 / refine-mv=0 / refine-ctu-distortion=0 / no-limit-sao / ctu-info=0 / no-lowpass-dct / refine-analysis-type=0 / copy-pic=1 / max-ausize-factor=1.0 / no-dynamic-refine / no-single-sei / no-hevc-aq / no-svt / no-field / qp-adaptation-range=1.00 Default : Yes Forced : No Audio #1 ID : 4 Format : AAC LC Format/Info : Advanced Audio Codec Low Complexity Codec ID : A_AAC-2 Duration : 23 min 41 s Bit rate : 635 kb/s Channel(s) : 6 channels Channel layout : C L R Ls Rs LFE Sampling rate : 48.0 kHz Frame rate : 46.875 FPS (1024 SPF) Compression mode : Lossy Delay relative to video : 20 ms Stream size : 108 MiB (20%) Language : English Default : Yes Forced : No Audio #2 ID : 5 Format : AAC LC Format/Info : Advanced Audio Codec Low Complexity Codec ID : A_AAC-2 Duration : 23 min 41 s Bit rate : 265 kb/s Channel(s) : 2 channels Channel layout : L R Sampling rate : 48.0 kHz Frame rate : 46.875 FPS (1024 SPF) Compression mode : Lossy Delay relative to video : 20 ms Stream size : 44.8 MiB (8%) Language : Japanese Default : No Forced : No Text #1 ID : 2 Format : ASS Codec ID : S_TEXT/ASS Codec ID/Info : Advanced Sub Station Alpha Duration : 21 min 8 s Bit rate : 263 b/s Count of elements : 238 Compression mode : Lossless Stream size : 40.8 KiB (0%) Language : English Default : Yes Forced : No Text #2 ID : 3 Format : ASS Codec ID : S_TEXT/ASS Codec ID/Info : Advanced Sub Station Alpha Duration : 23 min 30 s Bit rate : 363 b/s Count of elements : 664 Compression mode : Lossless Stream size : 62.7 KiB (0%) Language : English Default : No Forced : No Menu 00:00:00.000 : en:Avant 00:02:19.013 : en:OP 00:03:49.020 : en:Part A 00:13:17.963 : en:Part B 00:21:54.938 : en:ED 00:23:24.945 : en:Next Source: [Kametsu] Akame ga Kill! (BD 1080p Hi10 FLAC) [Dual-Audio] Next series: Yona of the Dawn

File list

  • Akame ga Kill! (2014) [1080p x265 HEVC 10bit BD Dual Audio AAC] [Prof]
    • [Prof] Episode 01 - Kill the Darkness.mkv (546.7 MiB)
    • [Prof] Episode 02 - Kill the Authority.mkv (563.0 MiB)
    • [Prof] Episode 03 - Kill Your Cares.mkv (630.1 MiB)
    • [Prof] Episode 04 - Kill the Imperial Arm Users.mkv (514.6 MiB)
    • [Prof] Episode 05 - Kill the Dream.mkv (544.6 MiB)
    • [Prof] Episode 06 - Kill the Absolute Justice.mkv (757.2 MiB)
    • [Prof] Episode 07 - Kill the Three -Part One-.mkv (525.7 MiB)
    • [Prof] Episode 08 - Kill the Three -Part Two-.mkv (656.0 MiB)
    • [Prof] Episode 09 - Kill the Battle Fanatic.mkv (555.7 MiB)
    • [Prof] Episode 10 - Kill the Temptation.mkv (530.1 MiB)
    • [Prof] Episode 11 - Kill the Mad Scientist.mkv (529.2 MiB)
    • [Prof] Episode 12 - Kill the Newcomers.mkv (551.8 MiB)
    • [Prof] Episode 13 - Kill the Nuisances.mkv (541.7 MiB)
    • [Prof] Episode 14 - Kill the Giant Danger Beast.mkv (556.3 MiB)
    • [Prof] Episode 15 - Kill the Religious Organization.mkv (540.4 MiB)
    • [Prof] Episode 16 - Kill the Puppets.mkv (686.3 MiB)
    • [Prof] Episode 17 - Kill the Curse.mkv (582.5 MiB)
    • [Prof] Episode 18 - Kill the Demon.mkv (496.8 MiB)
    • [Prof] Episode 19 - Kill the Fate.mkv (595.1 MiB)
    • [Prof] Episode 20 - Kill the Carnage.mkv (559.4 MiB)
    • [Prof] Episode 21 - Kill the Despair.mkv (558.7 MiB)
    • [Prof] Episode 22 - Kill the Little Sister.mkv (498.8 MiB)
    • [Prof] Episode 23 - Kill the Emperor.mkv (592.7 MiB)
    • [Prof] Episode 24 - Akame ga Kill!.mkv (629.8 MiB)