「Fate stay night [Heaven's Feel] II.lost butterfly」[BD Remux]

Category:
Date:
2019-08-21 14:28 UTC
Submitter:
Anonymous
Seeders:
14
Information:
No information.
Leechers:
3
File size:
35.0 GiB
Completed:
890
Info hash:
4c25fc12ccd7e53c3bd0ed9e039ee32b017522af
Video ID : 1 Format : AVC Format/Info : Advanced Video Codec Format profile : High@L4.1 Format settings : CABAC / 4 Ref Frames Format settings, CABAC : Yes Format settings, Reference fra : 4 frames Codec ID : V_MPEG4/ISO/AVC Duration : 1 h 57 min Bit rate mode : Variable Bit rate : 36.8 Mb/s Maximum bit rate : 39.3 Mb/s Width : 1 920 pixels Height : 1 080 pixels Display aspect ratio : 16:9 Frame rate mode : Constant Frame rate : 23.976 (24000/1001) FPS Color space : YUV Chroma subsampling : 4:2:0 Bit depth : 8 bits Scan type : Progressive Bits/(Pixel*Frame) : 0.741 Stream size : 30.1 GiB (86%) Language : Japanese Default : Yes Forced : No Audio #1 ID : 2 Format : DTS XLL Format/Info : Digital Theater Systems Commercial name : DTS-HD Master Audio Codec ID : A_DTS Duration : 1 h 57 min Bit rate mode : Variable Bit rate : 1 742 kb/s Channel(s) : 2 channels Channel layout : L R Sampling rate : 48.0 kHz Frame rate : 93.750 FPS (512 SPF) Bit depth : 24 bits Compression mode : Lossless Stream size : 1.42 GiB (4%) Language : Japanese Default : Yes Forced : No Audio #2 ID : 3 Format : DTS XLL Format/Info : Digital Theater Systems Commercial name : DTS-HD Master Audio Codec ID : A_DTS Duration : 1 h 57 min Bit rate mode : Variable Bit rate : 4 071 kb/s Channel(s) : 6 channels Channel layout : C L R Ls Rs LFE Sampling rate : 48.0 kHz Frame rate : 93.750 FPS (512 SPF) Bit depth : 24 bits Compression mode : Lossless Stream size : 3.33 GiB (10%) Language : Japanese Default : No Forced : No Text #1 ID : 4 Format : PGS Muxing mode : zlib Codec ID : S_HDMV/PGS Codec ID/Info : Picture based subtitle format used on BDs/HD-DVDs Duration : 1 h 55 min Bit rate : 185 kb/s Count of elements : 8369 Stream size : 153 MiB (0%) Language : Japanese Default : Yes Forced : No Text #2 ID : 5 Format : PGS Muxing mode : zlib Codec ID : S_HDMV/PGS Codec ID/Info : Picture based subtitle format used on BDs/HD-DVDs Duration : 1 h 56 min Bit rate : 150 kb/s Count of elements : 6211 Stream size : 125 MiB (0%) Language : English Default : No Forced : No

File list

Is that official english subtitle from ufotable? It was nice.
Thanks for the real bluray rip-not one of those fucking "re-encodes".